<?xml version="1.0" standalone="no"?>
<!DOCTYPE svg PUBLIC "-//W3C//DTD SVG 1.1//EN" "http://www.w3.org/Graphics/SVG/1.1/DTD/svg11.dtd" >
<svg xmlns="http://www.w3.org/2000/svg">
<metadata>Generated by IcoMoon</metadata>
<defs>
<font id="TFE-countries-icones" horiz-adv-x="1024">
<font-face units-per-em="1024" ascent="960" descent="-64" />
<missing-glyph horiz-adv-x="1024" />
<glyph unicode="&#x20;" horiz-adv-x="512" d="" />
<glyph unicode="&#xe900;" horiz-adv-x="1408" d="M1273.907 960h-1139.812c-74.059 0-134.095-61.128-134.095-136.533v-750.936c0-75.405 60.036-136.531 134.095-136.531h1139.812c74.054 0 134.093 61.126 134.093 136.531v750.936c0 75.405-60.038 136.533-134.093 136.533z" />
<glyph unicode="&#xe901;" horiz-adv-x="1408" d="M0 960h448v-1024h-448v1024z" />
<glyph unicode="&#xe902;" horiz-adv-x="1408" d="M960 960h448v-1024h-448v1024z" />
<glyph unicode="&#xe903;" horiz-adv-x="1408" d="M800.282 281.773c41.165 12.762 71.341 51.744 71.341 97.961v204.8c0 57.002-45.056 102.4-100.576 102.4h-134.092c-55.381 0-100.572-45.739-100.572-102.4v-204.8c0-46.558 30.037-85.334 71.339-98.031 12.471-42.323 50.819-72.634 96.278-72.634 45.728 0 83.814 30.72 96.282 72.704z" />
<glyph unicode="&#xe904;" horiz-adv-x="1408" d="M603.43 618.666h67.047v-102.4h-67.047v102.4zM737.523 482.132h67.046v-102.4h-67.046v102.4z" />
<glyph unicode="&#xe905;" horiz-adv-x="1408" d="M737.523 618.666h67.046v-102.4h-67.046v102.4zM603.43 482.132h67.047v-102.4h-67.047v102.4z" />
<glyph unicode="&#xe906;" horiz-adv-x="1408" d="M1273.907 960h-1139.812c-74.059 0-134.095-61.128-134.095-136.533v-750.936c0-75.405 60.036-136.531 134.095-136.531h1139.812c74.054 0 134.093 61.126 134.093 136.531v750.936c0 75.405-60.038 136.533-134.093 136.533z" />
<glyph unicode="&#xe907;" horiz-adv-x="1408" d="M0 256h1408v-320h-1408v320z" />
<glyph unicode="&#xe908;" horiz-adv-x="1408" d="M0 960h1408v-320h-1408v320z" />
<glyph unicode="&#xe909;" horiz-adv-x="1408" d="M0 960v-1024h384v1024h-384z" />
<glyph unicode="&#xe90a;" horiz-adv-x="1408" d="M1273.907 960h-1139.812c-74.059 0-134.095-61.128-134.095-136.533v-750.936c0-75.405 60.036-136.531 134.095-136.531h1139.812c74.054 0 134.093 61.126 134.093 136.531v750.936c0 75.405-60.038 136.533-134.093 136.533z" />
<glyph unicode="&#xe90b;" horiz-adv-x="1408" d="M0 960h448v-1024h-448v1024z" />
<glyph unicode="&#xe90c;" horiz-adv-x="1408" d="M960 960h448v-1024h-448v1024z" />
<glyph unicode="&#xe90d;" horiz-adv-x="1408" d="M704 277.331c-92.526 0-167.619 76.46-167.619 170.668s75.093 170.667 167.619 170.667c92.525 0 167.616-76.459 167.616-170.667s-75.091-170.668-167.616-170.668zM704 345.599c55.514 0 100.57 61.099 100.57 136.533s-45.056 136.534-100.57 136.534c-55.514 0-100.572-61.099-100.572-136.534s45.058-136.533 100.572-136.533zM704 413.866c18.502 0 33.523 30.583 33.523 68.266s-15.021 68.267-33.523 68.267c-18.502 0-33.523-30.584-33.523-68.267s15.021-68.266 33.523-68.266z" />
<glyph unicode="&#xe90e;" horiz-adv-x="1408" d="M0 960h1408v-1024h-1408v1024z" />
<glyph unicode="&#xe90f;" horiz-adv-x="1408" d="M704 345.6c129.6 0 234.662 106.974 234.662 238.934s-105.062 238.933-234.662 238.933c-129.604 0-234.668-106.974-234.668-238.933s105.064-238.934 234.668-238.934z" />
<glyph unicode="&#xe910;" horiz-adv-x="1408" d="M0 345.599h1408v-409.599h-1408v409.599z" />
<glyph unicode="&#xe911;" horiz-adv-x="1408" d="M0 550.401h1408v-204.8h-1408v204.8z" />
<glyph unicode="&#xe912;" horiz-adv-x="1408" d="M737.523-64h-737.523v1024l737.523-1024z" />
<glyph unicode="&#xe913;" horiz-adv-x="1408" d="M670.477-64h737.523v1024l-737.523-1024z" />
<glyph unicode="&#xe914;" horiz-adv-x="1539" d="M0 960c507.803 0 1015.607 0 1538.798 0 0-337.92 0-675.84 0-1024-507.803 0-1015.607 0-1538.798 0 0 337.92 0 675.84 0 1024z" />
<glyph unicode="&#xe915;" horiz-adv-x="1539" d="M0 960c107.341-58.55 213.695-118.612 319.139-180.508 107.47-63.084 215.481-125.175 323.77-186.836 28.676-16.33 57.322-32.708 85.94-49.139 17.453-9.976 34.96-19.856 52.462-29.746 12.468-7.116 24.934-14.234 37.399-21.355 5.953-3.337 11.905-6.674 18.038-10.112 8.177-4.7 8.177-4.7 16.519-9.495 4.878-2.767 9.757-5.533 14.783-8.384 5.179-3.976 5.179-3.976 10.463-8.031 0-5.54 0-11.079 0-16.787-74.281-42.948-148.617-85.796-223.126-128.35-3.23-1.845-6.459-3.689-9.787-5.59-33.076-18.89-66.16-37.765-99.253-56.624-70.517-40.192-140.907-80.581-210.965-121.57-46.835-27.394-93.823-54.518-140.848-81.585-31.221-17.986-62.396-36.046-93.485-54.26-6.221-3.643-12.443-7.285-18.852-11.038-11.926-6.991-23.846-13.992-35.76-21.005-5.291-3.102-10.582-6.203-16.033-9.399-7.006-4.122-7.006-4.122-14.154-8.327-10.654-5.859-10.654-5.859-16.25-5.859 0 337.92 0 675.84 0 1024z" />
<glyph unicode="&#xe916;" horiz-adv-x="1539" d="M393.523 138.116c7.315 0.007 7.315 0.007 14.778 0.014 16.436 0.009 32.873-0.022 49.309-0.052 11.744-0.002 23.488-0.001 35.232 0.002 31.965 0.002 63.93-0.031 95.895-0.070 33.375-0.035 66.75-0.038 100.124-0.045 63.237-0.017 126.474-0.063 189.711-0.119 71.977-0.062 143.955-0.093 215.932-0.121 148.098-0.059 296.195-0.158 444.293-0.282 0-66.476 0-132.952 0-201.443-505.957 0-1011.913 0-1533.202 0 20.328 16.262 37.601 28.634 59.869 41.202 6.24 3.541 12.48 7.082 18.91 10.731 6.731 3.789 13.463 7.578 20.194 11.367 10.479 5.934 20.952 11.877 31.426 17.82 7.194 4.082 14.391 8.161 21.588 12.238 44.622 25.285 88.993 51.004 133.384 76.692 5.729 3.312 11.459 6.624 17.362 10.037 5.039 2.917 10.079 5.835 15.27 8.84 23.83 13.583 42.92 13.284 69.924 13.188z" />
<glyph unicode="&#xe917;" horiz-adv-x="1539" d="M5.596 960c505.957 0 1011.913 0 1533.202 0 0-66.476 0-132.952 0-201.443-152.982-1.82-305.962-3.215-458.953-4.059-71.051-0.402-142.095-0.95-213.141-1.851-61.987-0.785-123.969-1.287-185.96-1.461-32.771-0.101-65.528-0.336-98.294-0.912-257.893-4.357-257.893-4.357-363.423 77.506-16.699 12.699-34.274 22.466-52.665 32.526-10.347 6.056-20.686 12.124-31.016 18.208-5.211 3.055-10.423 6.11-15.792 9.257-10.317 6.047-20.627 12.104-30.932 18.172-11.537 6.752-23.11 13.441-34.705 20.093-6.157 3.541-12.315 7.081-18.658 10.73-5.667 3.239-11.335 6.478-17.173 9.816-4.121 2.582-8.242 5.164-12.488 7.824 0 1.847 0 3.693 0 5.596z" />
<glyph unicode="&#xe918;" horiz-adv-x="1539" d="M787.302 347.657c8.222-0.008 16.443-0.003 24.665 0.012 22.184 0.008 44.364-0.156 66.547-0.352 23.233-0.176 46.466-0.191 69.699-0.225 43.935-0.087 87.867-0.316 131.801-0.597 50.043-0.313 100.085-0.467 150.129-0.607 102.887-0.292 205.771-0.805 308.656-1.408 0-68.323 0-136.645 0-207.038-391.47 0-782.94 0-1186.273 0 19.542 15.633 35.221 27.226 56.59 38.951 5.536 3.062 11.072 6.125 16.776 9.28 5.911 3.242 11.822 6.484 17.913 9.824 55.699 30.842 110.914 62.397 165.799 94.664 5.184 3.045 10.368 6.090 15.709 9.227 6.708 3.955 6.708 3.955 13.552 7.99 5.222 3.011 10.445 6.022 15.825 9.124 3.191 2.277 6.382 4.554 9.67 6.9 39.397 25.88 77.127 24.875 122.943 24.255z" />
<glyph unicode="&#xe919;" horiz-adv-x="1539" d="M716.24 551.519c271.444 0 542.888 0 822.557 0 0-68.323 0-136.645 0-207.038-271.444 0-542.888 0-822.557 0 16.317 16.317 30.341 25.423 50.251 36.787 3.205 1.839 6.411 3.679 9.714 5.574 10.191 5.84 20.402 11.642 30.614 17.443 6.934 3.965 13.867 7.932 20.798 11.902 16.949 9.7 33.918 19.367 50.896 29.016-19.141 15.968-38.452 29.154-60.087 41.508-5.969 3.437-11.938 6.874-18.087 10.415-6.171 3.524-12.342 7.047-18.699 10.678-12.346 7.056-24.682 14.129-37.005 21.224-5.448 3.11-10.896 6.22-16.51 9.425-3.922 2.466-7.843 4.931-11.884 7.471 0 1.847 0 3.693 0 5.596z" />
<glyph unicode="&#xe91a;" horiz-adv-x="1408" d="M0 960h1408v-1024h-1408v1024z" />
<glyph unicode="&#xe91b;" horiz-adv-x="1408" d="M1273.907 960h-1139.812c-74.059 0-134.095-61.128-134.095-136.533v-750.936c0-75.405 60.036-136.531 134.095-136.531h1139.812c74.054 0 134.093 61.126 134.093 136.531v750.936c0 75.405-60.038 136.533-134.093 136.533z" />
<glyph unicode="&#xe91c;" horiz-adv-x="1408" d="M0 448h1408v-512h-1408v512z" />
<glyph unicode="&#xe91d;" horiz-adv-x="1408" d="M834.81 305.6c29.101 39.729 46.259 89.018 46.259 142.402 0 100.147-60.544 185.89-146.362 221.457l-40.563-57.822c69.325-20.958 119.878-86.289 119.878-163.635 0-40.55-13.875-77.824-37.075-107.042l-231.114 141.175 180.758-184.049c-23.802-13.242-51.155-20.749-80.186-20.749-56.322 0-106.138 28.262-136.511 71.677l-40.564-57.821c42.978-50.31 106.338-82.125 177.075-82.125 47.603 0 91.987 14.47 128.998 39.322l38.618-39.322 67.046 68.269-46.259 28.262zM545.834 618.669h67.048v-68.267h-67.048v68.267z" />
<glyph unicode="&#xe91e;" horiz-adv-x="1408" d="M1273.907 960h-1139.812c-74.059 0-134.095-61.128-134.095-136.533v-750.936c0-75.405 60.036-136.531 134.095-136.531h1139.812c74.054 0 134.093 61.126 134.093 136.531v750.936c0 75.405-60.038 136.533-134.093 136.533z" />
<glyph unicode="&#xe91f;" horiz-adv-x="1408" d="M0 256h1408v-320h-1408v320zM0 960h1408v-320h-1408v320z" />
<glyph unicode="&#xe920;" horiz-adv-x="1408" d="M704 345.601c55.546 0 100.57 45.846 100.57 102.4s-45.024 102.4-100.57 102.4c-55.546 0-100.57-45.846-100.57-102.4s45.025-102.4 100.57-102.4z" />
<glyph unicode="&#xe921;" horiz-adv-x="1408" d="M1273.907 960h-1139.812c-74.059 0-134.095-61.128-134.095-136.533v-750.936c0-75.405 60.036-136.531 134.095-136.531h1139.812c74.054 0 134.093 61.126 134.093 136.531v750.936c0 75.405-60.038 136.533-134.093 136.533z" />
<glyph unicode="&#xe922;" horiz-adv-x="1408" d="M0 256h1408v-320h-1408v320zM0 960h1408v-320h-1408v320z" />
<glyph unicode="&#xe923;" horiz-adv-x="1408" d="M0 960h1408v-1024h-1408v1024z" />
<glyph unicode="&#xe924;" horiz-adv-x="1408" d="M1273.907 960h-1139.812c-74.059 0-134.095-61.128-134.095-136.533v-750.936c0-75.405 60.036-136.531 134.095-136.531h1139.812c74.054 0 134.093 61.126 134.093 136.531v750.936c0 75.405-60.038 136.533-134.093 136.533z" />
<glyph unicode="&#xe925;" horiz-adv-x="1408" d="M268.191 174.931l67.048 34.138 33.524 68.262 33.524-68.262 67.048-34.138-67.048-34.131-33.524-68.269-33.524 68.269-67.048 34.131zM938.669 755.199v-68.267h67.046v68.267h-67.046zM1139.808 686.932v-68.267h67.053v68.267h-67.053zM871.622 550.399v-68.267h67.046v68.267h-67.046zM1072.762 482.132v-68.267h67.046v68.267h-67.046zM1005.715 277.331v-68.262h67.046v68.262h-67.046z" />
<glyph unicode="&#xe926;" horiz-adv-x="1408" d="M603.428 891.732h-469.333c-37.030 0-67.048-30.564-67.048-68.267v-341.333c0-37.703 30.018-68.267 67.048-68.267h469.333c37.027 0 67.049 30.564 67.049 68.267v341.333c0 37.703-30.022 68.267-67.049 68.267z" />
<glyph unicode="&#xe927;" horiz-adv-x="1408" d="M335.236 618.667h-201.143v68.267h201.143v136.533h67.048v-136.533h201.143v-68.267h-201.143v-136.533h-67.048v136.533zM502.856 550.4v-68.266h100.572v68.266h-100.572zM502.856 823.467v-68.267h100.572v68.267h-100.572zM134.093 550.4v-68.266h100.572v68.266h-100.572zM134.093 823.467v-68.267h100.572v68.267h-100.572z" />
<glyph unicode="&#xe928;" horiz-adv-x="1408" d="M0 960h1408v-1024h-1408v1024z" />
<glyph unicode="&#xe929;" horiz-adv-x="1408" d="M1273.907 960h-1139.812c-74.059 0-134.095-61.128-134.095-136.533v-750.936c0-75.405 60.036-136.531 134.095-136.531h1139.812c74.054 0 134.093 61.126 134.093 136.531v750.936c0 75.405-60.038 136.533-134.093 136.533z" />
<glyph unicode="&#xe92a;" horiz-adv-x="1408" d="M300.707 653.824c58.332 3.755 101.577 17.067 101.577 33.11 0 15.974-43.245 29.354-101.577 33.109-3.688 59.392-16.762 103.424-32.518 103.424-15.689 0-28.83-44.032-32.518-103.424-58.332-3.755-101.578-17.067-101.578-33.109 0-15.974 43.246-29.355 101.578-33.11 3.688-59.392 16.762-103.424 32.518-103.424 15.69 0 28.831 44.032 32.518 103.424z" />
<glyph unicode="&#xe92b;" horiz-adv-x="1408" d="M300.707 653.823c58.332 3.755 101.578 17.067 101.578 33.11 0 15.974-43.246 29.354-101.578 33.109-3.687 59.392-16.762 103.424-32.518 103.424-15.689 0-28.831-44.032-32.518-103.424-58.331-3.755-101.577-17.067-101.577-33.109 0-15.974 43.246-29.355 101.577-33.11 3.688-59.392 16.762-103.424 32.518-103.424 15.689 0 28.831 44.032 32.518 103.424zM302.719 619.69l31.512 32.085c-5.028-81.783-21.79-135.509-66.042-135.509s-61.013 53.794-65.975 135.441l31.379-31.949c-80.189 5.052-133.023 22.118-133.023 67.174s52.833 62.122 133.023 67.174l-31.379-31.949c4.962 81.647 21.724 135.441 65.975 135.441s61.013-53.794 65.975-135.441l-31.379 31.949c80.189-5.052 133.023-22.118 133.023-67.174s-52.834-62.123-133.023-67.174l-0.067-0.068z" />
<glyph unicode="&#xe92c;" horiz-adv-x="1408" d="M0 320h1408v-64h-1408v64zM0 192h1408v-64h-1408v64z" />
<glyph unicode="&#xe92d;" horiz-adv-x="1408" d="M1273.907 960h-1139.812c-74.059 0-134.095-61.128-134.095-136.533v-750.936c0-75.405 60.036-136.531 134.095-136.531h1139.812c74.054 0 134.093 61.126 134.093 136.531v750.936c0 75.405-60.038 136.533-134.093 136.533z" />
<glyph unicode="&#xe92e;" horiz-adv-x="1408" d="M0 256h1408v-320h-1408v320z" />
<glyph unicode="&#xe92f;" horiz-adv-x="1408" d="M0 960h1408v-320h-1408v320z" />
<glyph unicode="&#xe930;" horiz-adv-x="1408" d="M804.57 482.133h67.053v-68.267h-67.053v68.267z" />
<glyph unicode="&#xe931;" horiz-adv-x="1408" d="M838.093 345.599c-30.573-41.439-79.245-68.268-134.093-68.268-92.526 0-167.619 76.46-167.619 170.668s75.093 170.667 167.619 170.667c54.848 0 103.52-26.829 134.093-68.267h-100.57c-55.514 0-100.571-45.875-100.571-102.4s45.057-102.4 100.571-102.4h100.57z" />
<glyph unicode="&#xe932;" horiz-adv-x="1408" d="M0 960h1408v-1024h-1408v1024z" />
<glyph unicode="&#xe933;" horiz-adv-x="1408" d="M1273.907 960h-1139.812c-74.059 0-134.095-61.128-134.095-136.533v-750.936c0-75.405 60.036-136.531 134.095-136.531h1139.812c74.054 0 134.093 61.126 134.093 136.531v750.936c0 75.405-60.038 136.533-134.093 136.533z" />
<glyph unicode="&#xe934;" horiz-adv-x="1408" d="M0 960l1408-955.731-8.25-75.098-1399.75 6.829v1024z" />
<glyph unicode="&#xe935;" horiz-adv-x="1408" d="M67.047 755.2h67.048v-68.266h-67.048v68.266zM268.189 618.667h67.048v-68.267h-67.048v68.267zM469.332 482.134h67.048v-68.267h-67.048v68.267zM670.477 345.6h67.046v-68.269h-67.046v68.269zM871.616 209.069h67.053v-68.269h-67.053v68.269zM1072.762 72.531h67.046v-68.262h-67.046v68.262z" />
<glyph unicode="&#xe936;" horiz-adv-x="1408" d="M1273.907 960h-1139.812c-74.059 0-134.095-61.128-134.095-136.533v-750.936c0-75.405 60.036-136.531 134.095-136.531h1139.812c74.054 0 134.093 61.126 134.093 136.531v750.936c0 75.405-60.038 136.533-134.093 136.533z" />
<glyph unicode="&#xe937;" horiz-adv-x="1408" d="M0 960h448v-1024h-448v1024zM960 960h448v-1024h-448v1024z" />
<glyph unicode="&#xe938;" horiz-adv-x="1408" d="M670.477 277.331h67.046v-68.262h-67.046v68.262zM804.576 413.867h67.046v-68.266h-67.046v68.266zM536.383 413.867h67.048v-68.266h-67.048v68.266z" />
<glyph unicode="&#xe939;" horiz-adv-x="1408" d="M737.523 413.867v273.067h-67.046v-273.067h-67.046v-68.267h67.046v-68.269h67.046v68.269h67.053v68.267h-67.053zM804.576 618.667h67.046v-204.8h-67.046v204.8zM536.383 618.667h67.048v-204.8h-67.048v204.8z" />
<glyph unicode="&#xe93a;" horiz-adv-x="1408" d="M0 960h1408v-1024h-1408v1024z" />
<glyph unicode="&#xe93b;" horiz-adv-x="1408" d="M1273.907 960h-1139.812c-74.059 0-134.095-61.128-134.095-136.533v-750.936c0-75.405 60.036-136.531 134.095-136.531h1139.812c74.054 0 134.093 61.126 134.093 136.531v750.936c0 75.405-60.038 136.533-134.093 136.533z" />
<glyph unicode="&#xe93c;" horiz-adv-x="1408" d="M640 128c176.73 0 320 143.27 320 320s-143.27 320-320 320c-176.731 0-320-143.269-320-320s143.269-320 320-320z" />
<glyph unicode="&#xe93d;" horiz-adv-x="1408" d="M1273.907 960h-1139.812c-74.059 0-134.095-61.128-134.095-136.533v-750.936c0-75.405 60.036-136.531 134.095-136.531h1139.812c74.054 0 134.093 61.126 134.093 136.531v750.936c0 75.405-60.038 136.533-134.093 136.533z" />
<glyph unicode="&#xe93e;" horiz-adv-x="1408" d="M0 960h448v-1024h-448v1024z" />
<glyph unicode="&#xe93f;" horiz-adv-x="1408" d="M960 960h448v-1024h-448v1024z" />
<glyph unicode="&#xe940;" horiz-adv-x="1408" d="M0 960h1408v-1024h-1408v1024z" />
<glyph unicode="&#xe941;" horiz-adv-x="1408" d="M1273.907 960h-1139.812c-74.059 0-134.095-61.128-134.095-136.533v-750.936c0-75.405 60.036-136.531 134.095-136.531h1139.812c74.054 0 134.093 61.126 134.093 136.531v750.936c0 75.405-60.038 136.533-134.093 136.533z" />
<glyph unicode="&#xe942;" horiz-adv-x="1408" d="M0 448h1408v-512h-1408v512z" />
<glyph unicode="&#xe943;" horiz-adv-x="1408" d="M704 328.534l-137.918-73.865 26.35 156.331-111.702 110.933 154.21 22.801 69.060 142.2 69.056-142.268 154.214-22.801-111.706-110.797 26.349-156.47z" />
<glyph unicode="&#xe944;" horiz-adv-x="1408" d="M1273.907 960h-1139.812c-74.059 0-134.095-61.128-134.095-136.533v-750.936c0-75.405 60.036-136.531 134.095-136.531h1139.812c74.054 0 134.093 61.126 134.093 136.531v750.936c0 75.405-60.038 136.533-134.093 136.533z" />
<glyph unicode="&#xe945;" horiz-adv-x="1408" d="M0 256h1408v-320h-1408v320z" />
<glyph unicode="&#xe946;" horiz-adv-x="1408" d="M0 960h1408v-320h-1408v320z" />
<glyph unicode="&#xe947;" horiz-adv-x="1408" d="M0 960h1408v-1024h-1408v1024z" />
<glyph unicode="&#xe948;" horiz-adv-x="1408" d="M0 960h469.333v-1024h-469.333v1024zM469.333 960l134.095-102.4-134.095-102.4v204.8zM469.333 755.2l134.095-102.4-134.095-102.4v204.8zM469.333 550.4l134.095-102.4-134.095-102.4v204.8zM469.333 345.6l134.095-102.4-134.095-102.4v204.8zM469.333 140.8l134.095-102.4-134.095-102.4v204.8z" />
<glyph unicode="&#xe949;" horiz-adv-x="1408" d="M1273.907 960h-1139.812c-74.059 0-134.095-61.128-134.095-136.533v-750.936c0-75.405 60.036-136.531 134.095-136.531h1139.812c74.054 0 134.093 61.126 134.093 136.531v750.936c0 75.405-60.038 136.533-134.093 136.533z" />
<glyph unicode="&#xe94a;" horiz-adv-x="1408" d="M0 960l670.477-546.133-670.477-477.867v1024zM1408 960l-670.477-546.133 670.477-477.867v1024z" />
<glyph unicode="&#xe94b;" horiz-adv-x="1408" d="M479.927 519.27l-479.927 338.33v102.4h100.572l459.075-323.584c39.759 31.676 89.844 50.517 144.353 50.517 54.445 0 104.595-18.842 144.352-50.517l459.078 323.584h100.57v-102.4l-479.93-338.33c6.906-22.528 10.598-46.421 10.598-71.27s-3.693-48.742-10.598-71.27l479.93-338.33v-102.4h-100.57l-459.078 323.584c-39.827-31.674-89.843-50.515-144.352-50.515-54.445 0-104.594 18.842-144.353 50.515l-459.075-323.584h-100.572v102.4l479.927 338.33c-6.906 22.528-10.594 46.421-10.594 71.27s3.688 48.742 10.594 71.27z" />
<glyph unicode="&#xe94c;" horiz-adv-x="1408" d="M670.477 550.401h67.046v-68.267h-67.046v68.267zM737.523 413.867h67.046v-68.266h-67.046v68.266zM603.43 413.867h67.047v-68.266h-67.047v68.266z" />
<glyph unicode="&#xe94d;" horiz-adv-x="1408" d="M0 960h1408v-1024h-1408v1024z" />
<glyph unicode="&#xe94e;" horiz-adv-x="1408" d="M1273.907 960h-1139.812c-74.059 0-134.095-61.128-134.095-136.533v-750.936c0-75.405 60.036-136.531 134.095-136.531h1139.812c74.054 0 134.093 61.126 134.093 136.531v750.936c0 75.405-60.038 136.533-134.093 136.533z" />
<glyph unicode="&#xe94f;" horiz-adv-x="1408" d="M512 384h896v-448h-896v448z" />
<glyph unicode="&#xe950;" horiz-adv-x="1408" d="M0 960h512v-1024h-512v1024z" />
<glyph unicode="&#xe951;" horiz-adv-x="1408" d="M0 960h1408v-1024h-1408v1024z" />
<glyph unicode="&#xe952;" horiz-adv-x="1408" d="M1273.907 960h-1139.812c-74.059 0-134.095-61.128-134.095-136.533v-750.936c0-75.405 60.036-136.531 134.095-136.531h1139.812c74.054 0 134.093 61.126 134.093 136.531v750.936c0 75.405-60.038 136.533-134.093 136.533z" />
<glyph unicode="&#xe953;" horiz-adv-x="1408" d="M0 960l1408-682.669v-273.062l-1408 682.664v273.067z" />
<glyph unicode="&#xe954;" horiz-adv-x="1408" d="M0 755.2l1408-682.669v-136.531l-1408 682.667v136.533z" />
<glyph unicode="&#xe955;" horiz-adv-x="1408" d="M536.381 482.134l67.047-68.267v-273.067l-134.095 68.269v136.531l-134.095 136.534 134.095 136.533 67.048-68.267v-68.266zM603.428 345.6h201.141v-68.269h-201.141v68.269zM871.622 482.134l-67.053-68.267v-273.067l134.099 68.269v136.531l134.093 136.534-134.093 136.533-67.046-68.267v-68.266zM603.428 550.4h201.141l-100.57 204.8-100.572-204.8z" />
<glyph unicode="&#xe956;" horiz-adv-x="1539" d="M290.973 613.071c3.693 0 7.386 0 11.191 0 11.079-35.085 22.159-70.169 33.574-106.317 38.778-1.847 77.555-3.693 117.508-5.596-20.241-20.241-37.596-35.826-60.503-52.109-5.46-3.902-10.921-7.805-16.546-11.825-6.178-4.36-6.178-4.36-12.481-8.809 1.57-4.743 1.57-4.743 3.171-9.582 4.698-14.279 9.333-28.577 13.966-42.877 1.648-4.977 3.296-9.954 4.995-15.082 1.533-4.761 3.066-9.521 4.645-14.426 1.436-4.395 2.872-8.791 4.351-13.32 2.447-11.030 2.447-11.030-3.149-22.221-5.734 4.508-11.469 9.016-17.377 13.661-7.61 5.826-15.224 11.647-22.842 17.464-3.769 2.983-7.538 5.965-11.421 9.038-21.109 16.445-21.109 16.445-46.459 22.262-19.999-9.367-37.094-21.592-54.732-34.798-5.415-3.965-5.415-3.965-10.94-8.011-8.859-6.496-17.674-13.051-26.481-19.617-7.453 14.907-3.903 19.913 1.202 35.541 1.533 4.761 3.066 9.521 4.645 14.426 1.648 4.977 3.296 9.954 4.995 15.082 1.627 5.020 3.253 10.041 4.929 15.213 4.032 12.428 8.103 24.842 12.208 37.246-2.882 2.005-5.763 4.010-8.732 6.075-12.957 9.030-25.894 18.089-38.831 27.149-4.537 3.156-9.074 6.311-13.749 9.563-4.292 3.011-8.584 6.023-13.005 9.126-3.985 2.784-7.97 5.568-12.077 8.436-4.322 3.366-4.322 3.366-8.732 6.799 0 1.847 0 3.693 0 5.596 40.624 0 81.249 0 123.104 0 2.424 9.117 4.847 18.235 7.344 27.628 7.745 28.471 16.53 56.424 26.23 84.284z" />
<glyph unicode="&#xe957;" horiz-adv-x="2048" d="M0 960c675.84 0 1351.68 0 2048 0 0-337.92 0-675.84 0-1024-675.84 0-1351.68 0-2048 0 0 337.92 0 675.84 0 1024z" />
<glyph unicode="&#xe958;" horiz-adv-x="2048" d="M1365.333 960c225.28 0 450.56 0 682.667 0 0-337.92 0-675.84 0-1024-225.28 0-450.56 0-682.667 0 0 337.92 0 675.84 0 1024z" />
<glyph unicode="&#xe959;" horiz-adv-x="2048" d="M0 960c225.28 0 450.56 0 682.667 0 0-337.92 0-675.84 0-1024-225.28 0-450.56 0-682.667 0 0 337.92 0 675.84 0 1024z" />
<glyph unicode="&#xe95a;" horiz-adv-x="2048" d="M444.377 496.302c27.629 0 55.257 0 83.723 0 0-133.893 0-267.786 0-405.736-27.629 0-55.257 0-83.723 0 0 133.893 0 267.786 0 405.736z" />
<glyph unicode="&#xe95b;" horiz-adv-x="2048" d="M154.566 496.302c27.629 0 55.257 0 83.723 0 0-133.893 0-267.786 0-405.736-27.629 0-55.257 0-83.723 0 0 133.893 0 267.786 0 405.736z" />
<glyph unicode="&#xe95c;" horiz-adv-x="2048" d="M367.094 702.39c18.097-11.551 29.042-19.442 38.642-38.642 2.709-19.701 3.158-38.304 0-57.962-15.698-19.321-15.698-19.321-32.201-32.201-2.125-2.125-4.251-4.251-6.44-6.44-45.572-3.798-45.572-3.798-70.44 12.075-21.934 22.599-21.855 39.564-21.61 69.962 2.766 21.356 12.251 32.276 27.648 46.767 20.62 10.31 42.028 9.655 64.403 6.44z" />
<glyph unicode="&#xe95d;" horiz-adv-x="2048" d="M386.415 367.497c39.731-39.731 39.731-39.731 40.252-65.61-0.488-27.959-4.197-46.424-20.931-69.635-22.844-19.48-39.387-25.854-69.635-25.358-20.528 6.038-20.528 6.038-33.409 25.358-2.013 19.322-3.349 32.78 6.44 49.912 13.567 8.48 23.514 10.79 39.044 14.088 20.267 4.195 20.267 4.195 35.019 18.113 4.009 18.042 4.057 34.714 3.22 53.132z" />
<glyph unicode="&#xe95e;" horiz-adv-x="2048" d="M354.214 380.377c15.296-7.245 15.296-7.245 25.761-19.321 3.908-22.961 3.312-33.873-10.063-53.132-19.288-13.848-38.042-17.835-60.78-24.151-14.749-22.124-14.030-32.107-12.881-57.962-17.089 6.266-24.465 10.677-33.811 26.566-9.121 34.965-10.222 59.454 6.038 91.371 25.473 29.604 46.149 41.683 85.736 36.629z" />
<glyph unicode="&#xe95f;" horiz-adv-x="1408" d="M0 960h1408v-1024h-1408v1024z" />
<glyph unicode="&#xe960;" horiz-adv-x="1408" d="M704 823.467l502.861-375.467-502.861-375.469-502.856 375.469z" />
<glyph unicode="&#xe961;" horiz-adv-x="1408" d="M704 209.069c129.6 0 234.662 106.97 234.662 238.931s-105.062 238.934-234.662 238.934c-129.604 0-234.668-106.974-234.668-238.934 0-131.962 105.064-238.931 234.668-238.931z" />
<glyph unicode="&#xe962;" horiz-adv-x="1408" d="M603.43 345.599v-68.268h67.047v68.268zM737.523 345.599v-68.268h67.046v68.268z" />
<glyph unicode="&#xe963;" horiz-adv-x="1408" d="M536.383 550.401c0 0 151.796-27.307 261.217-74.957l141.069-61.577z" />
<glyph unicode="&#xe964;" horiz-adv-x="1408" d="M530.963 519.57l11.011 62.394c0 0 182.318-43.076 227.556-61.171 42.82-17.128 181.066-77.075 181.066-77.075l-24.468-58.724-184.736 81.969z" />
<glyph unicode="&#xe965;" horiz-adv-x="1408" d="M1273.907 960h-1139.812c-74.059 0-134.095-61.128-134.095-136.533v-750.936c0-75.405 60.036-136.531 134.095-136.531h1139.812c74.054 0 134.093 61.126 134.093 136.531v750.936c0 75.405-60.038 136.533-134.093 136.533z" />
<glyph unicode="&#xe966;" horiz-adv-x="1408" d="M0 256h1408v-320h-1408v320zM0 960h1408v-320h-1408v320z" />
<glyph unicode="&#xe967;" horiz-adv-x="1408" d="M0 960v-1026.253l737.523 514.253-737.523 512z" />
<glyph unicode="&#xe968;" horiz-adv-x="1408" d="M128 960h1152c70.692 0 128-57.308 128-128v-768c0-70.692-57.308-128-128-128h-1152c-70.692 0-128 57.308-128 128v768c0 70.692 57.308 128 128 128z" />
<glyph unicode="&#xe969;" horiz-adv-x="1408" d="M1273.907 960h-1139.812c-74.059 0-134.095-61.128-134.095-136.533v-750.936c0-75.405 60.036-136.531 134.095-136.531h1139.812c74.054 0 134.093 61.126 134.093 136.531v750.936c0 75.405-60.038 136.533-134.093 136.533z" />
<glyph unicode="&#xe96a;" horiz-adv-x="1408" d="M0-64l1408 1024h-1408v-1024z" />
<glyph unicode="&#xe96b;" horiz-adv-x="1408" d="M201.142 277.331l33.524-102.4 134.095-34.131 33.524 68.269 268.191-34.138-67.048 170.669h134.095l201.146-68.269 67.046 68.269-201.146 68.267 67.046 68.267h201.146l33.523 68.266h-167.616v68.267h134.093l67.046 68.267-268.192 68.266-201.139-204.8 67.046-68.266-201.142 34.133-134.095-238.936-67.048-68.262-134.095 68.262z" />
<glyph unicode="&#xe96c;" horiz-adv-x="1408" d="M0 960h1408v-1024h-1408v1024z" />
<glyph unicode="&#xe96d;" horiz-adv-x="1408" d="M402.285 345.6h-402.285v204.8h402.285v409.6h201.143v-409.6h804.572v-204.8h-804.572v-409.6h-201.143v409.6z" />
<glyph unicode="&#xe96e;" horiz-adv-x="1408" d="M469.333 413.867h-469.333v68.266h469.333v477.867h67.048v-477.867h871.619v-68.266h-871.619v-477.867h-67.048v477.867z" />
<glyph unicode="&#xe96f;" horiz-adv-x="1408" d="M0 960h1408v-1024h-1408v1024z" />
<glyph unicode="&#xe970;" horiz-adv-x="1408" d="M0 345.599h1408v-68.268h-1408v68.268z" />
<glyph unicode="&#xe971;" horiz-adv-x="1408" d="M0 550.401h1408v-204.8h-1408v204.8z" />
<glyph unicode="&#xe972;" horiz-adv-x="1408" d="M0 618.667h1408v-68.266h-1408v68.266z" />
<glyph unicode="&#xe973;" horiz-adv-x="1408" d="M0 960h1408v-1024h-1408v1024z" />
<glyph unicode="&#xe974;" horiz-adv-x="1408" d="M1273.907 960h-1139.812c-74.059 0-134.095-61.128-134.095-136.533v-750.936c0-75.405 60.036-136.531 134.095-136.531h1139.812c74.054 0 134.093 61.126 134.093 136.531v750.936c0 75.405-60.038 136.533-134.093 136.533z" />
<glyph unicode="&#xe975;" horiz-adv-x="1408" d="M201.143 960l134.095-102.4-134.095-102.4v204.8zM201.143 755.2l134.095-102.4-134.095-102.4v204.8zM201.143 550.4l134.095-102.4-134.095-102.4v204.8zM201.143 345.6l134.095-102.4-134.095-102.4v204.8zM201.143 140.8l134.095-102.4-134.095-102.4v204.8zM134.095 960l-134.095-102.4 134.095-102.4v204.8zM134.095 755.2l-134.095-102.4 134.095-102.4v204.8zM134.095 550.4l-134.095-102.4 134.095-102.4v204.8zM134.095 345.6l-134.095-102.4 134.095-102.4v204.8zM134.095 140.8l-134.095-102.4 134.095-102.4v204.8zM134.095 960h67.048v-136.533h-67.048v136.533zM134.095 72.531h67.048v-136.531h-67.048v136.531zM134.095 618.667h67.048v-136.534h-67.048v136.534zM134.095 755.2h67.048v-68.267h-67.048v68.267zM134.095 209.069h67.048v-68.269h-67.048v68.269zM134.095 413.867h67.048v-136.536h-67.048v136.536z" />
<glyph unicode="&#xe976;" horiz-adv-x="1408" d="M320 192h1088v-256h-1088v256z" />
<glyph unicode="&#xe977;" horiz-adv-x="1408" d="M0 960h1408v-1024h-1408v1024z" />
<glyph unicode="&#xe978;" horiz-adv-x="1408" d="M704 140.8c166.63 0 301.715 137.536 301.715 307.199 0 169.661-135.085 307.2-301.715 307.2-166.633 0-301.715-137.539-301.715-307.2 0-169.663 135.082-307.199 301.715-307.199z" />
<glyph unicode="&#xe979;" horiz-adv-x="1408" d="M569.907 413.867h268.193v-68.266h-268.193v68.266z" />
<glyph unicode="&#xe97a;" horiz-adv-x="1408" d="M536.383 618.667h67.048v-68.267h-67.048v68.267zM670.477 686.934h67.046v-68.267h-67.046v68.267zM804.576 618.667h67.046v-68.267h-67.046v68.267zM871.622 482.134h67.046v-68.267h-67.046v68.267zM804.576 345.6h67.046v-68.269h-67.046v68.269z" />
<glyph unicode="&#xe97b;" horiz-adv-x="1408" d="M737.523 550.401h67.046v-68.267h-67.046v68.267z" />
<glyph unicode="&#xe97c;" horiz-adv-x="1408" d="M737.523 482.133h67.046v-68.267h-67.046v68.267z" />
<glyph unicode="&#xe97d;" horiz-adv-x="1408" d="M603.43 550.401h67.047v-68.267h-67.047v68.267z" />
<glyph unicode="&#xe97e;" horiz-adv-x="1408" d="M603.43 482.133h67.047v-68.267h-67.047v68.267z" />
<glyph unicode="&#xe97f;" horiz-adv-x="1408" d="M670.477 277.331h67.046v-68.262h-67.046v68.262zM536.38 345.599h67.048v-68.268h-67.048v68.268zM469.332 482.133h67.048v-68.267h-67.048v68.267z" />
<glyph unicode="&#xe980;" horiz-adv-x="1408" d="M0 72.531h1408v-136.531h-1408v136.531zM0 960h1408v-136.533h-1408v136.533z" />
<glyph unicode="&#xe981;" horiz-adv-x="1408" d="M0 960h1408v-1024h-1408v1024z" />
<glyph unicode="&#xe982;" horiz-adv-x="1408" d="M719.059 192h-30.118l7.533 110.701c-0.429 5.83-3.475 7.366-15.059 6.918l-120.473-13.837c0 0 22.588 27.677 22.588 41.515s-135.53 103.784-135.53 103.784c0 0 30.118 6.919 37.647 13.838s-30.118 83.027-30.118 83.027c0 0 76.516-27.676 82.823-20.757s15.059 34.595 15.059 34.595c0 0 60.236-62.27 75.294-62.27s-30.118 152.216-30.118 152.216 37.647-27.676 52.708-27.676c15.059 0 52.704 89.946 52.704 89.946s37.645-89.946 45.178-89.946c7.526 0 60.237 27.676 60.237 27.676s-37.651-145.297-30.118-152.216c7.526-6.919 75.29 62.27 75.29 62.27s7.533-27.676 15.059-34.595c7.533-6.919 82.829 20.757 82.829 20.757s-37.651-76.108-30.118-83.027c7.526-6.919 37.645-13.838 37.645-13.838s-135.526-89.946-135.526-103.784c0-13.838 15.053-41.515 15.053-41.515l-112.941 13.837c-9.075 2.394-12.224 0.576-15.059-6.918l7.533-110.701z" />
<glyph unicode="&#xe983;" horiz-adv-x="1408" d="M1088 960h320v-1024h-320v1024z" />
<glyph unicode="&#xe984;" horiz-adv-x="1408" d="M0 960h320v-1024h-320v1024z" />
<glyph unicode="&#xe985;" horiz-adv-x="1408" d="M0 960h1408v-1024h-1408v1024z" />
<glyph unicode="&#xe986;" horiz-adv-x="1408" d="M301.588 602.965l-98.56-52.771 18.773 111.753-79.652 79.189 110.159 16.179 49.28 101.717 49.213-101.717 110.159-16.179-79.787-79.189 18.908-111.684z" />
<glyph unicode="&#xe987;" horiz-adv-x="1408" d="M0 4.269l1408 750.931v273.067l-1408-750.936v-273.062z" />
<glyph unicode="&#xe988;" horiz-adv-x="1408" d="M0-132.269l1408 750.936v273.066l-1408-750.933v-273.069z" />
<glyph unicode="&#xe989;" horiz-adv-x="1408" d="M0-64l1408 750.933v273.067l-1408-750.931v-273.069z" />
<glyph unicode="&#xe98a;" horiz-adv-x="1408" d="M1273.907 960h-1139.812c-74.059 0-134.095-61.128-134.095-136.533v-750.936c0-75.405 60.036-136.531 134.095-136.531h1139.812c74.054 0 134.093 61.126 134.093 136.531v750.936c0 75.405-60.038 136.533-134.093 136.533z" />
<glyph unicode="&#xe98b;" horiz-adv-x="1408" d="M0 256h1408v-320h-1408v320z" />
<glyph unicode="&#xe98c;" horiz-adv-x="1408" d="M0 384h1408v-192h-1408v192z" />
<glyph unicode="&#xe98d;" horiz-adv-x="1408" d="M0 960h1408v-384h-1408v384z" />
<glyph unicode="&#xe98e;" horiz-adv-x="1408" d="M201.144 823.467h67.048v-68.267h-67.048v68.267z" />
<glyph unicode="&#xe98f;" horiz-adv-x="1408" d="M134.093 823.467h67.048v-68.267h-67.048v68.267zM268.189 823.467h67.048v-68.267h-67.048v68.267zM201.141 755.2h67.048v-68.267h-67.048v68.267zM201.141 891.733h67.048v-68.266h-67.048v68.266z" />
<glyph unicode="&#xe990;" horiz-adv-x="1408" d="M576 960h256v-1024h-256v1024z" />
<glyph unicode="&#xe991;" horiz-adv-x="1408" d="M0 960h1408v-1024h-1408v1024z" />
<glyph unicode="&#xe992;" horiz-adv-x="1408" d="M402.285-64l871.622 1024h134.093v-1024h-1005.715z" />
<glyph unicode="&#xe993;" horiz-adv-x="1408" d="M469.333-64l938.667 1024h-469.331l-938.669-1024h469.333z" />
<glyph unicode="&#xe994;" horiz-adv-x="1408" d="M0 960h1408v-1024h-1408v1024z" />
<glyph unicode="&#xe995;" horiz-adv-x="1408" d="M603.428 550.4h-201.142v-204.8h201.142v-204.8h201.142v204.8h201.146v204.8h-201.146v204.8h-201.142v-204.8z" />
<glyph unicode="&#xe996;" horiz-adv-x="1408" d="M1273.907 960h-1139.812c-74.059 0-134.095-61.128-134.095-136.533v-750.936c0-75.405 60.036-136.531 134.095-136.531h1139.812c74.054 0 134.093 61.126 134.093 136.531v750.936c0 75.405-60.038 136.533-134.093 136.533z" />
<glyph unicode="&#xe997;" horiz-adv-x="1408" d="M0 960h448v-1024h-448v1024z" />
<glyph unicode="&#xe998;" horiz-adv-x="1408" d="M960 960h448v-1024h-448v1024z" />
<glyph unicode="&#xe999;" horiz-adv-x="1408" d="M0 960h1408v-1024h-1408v1024z" />
<glyph unicode="&#xe99a;" horiz-adv-x="1408" d="M1273.907 960h-1139.812c-74.059 0-134.095-61.128-134.095-136.533v-750.936c0-75.405 60.036-136.531 134.095-136.531h1139.812c74.054 0 134.093 61.126 134.093 136.531v750.936c0 75.405-60.038 136.533-134.093 136.533z" />
<glyph unicode="&#xe99b;" horiz-adv-x="1408" d="M0 960h576v-512h-576v512z" />
<glyph unicode="&#xe99c;" horiz-adv-x="1408" d="M287.439 603.166l-98.56-52.77 18.773 111.684-79.652 79.19 110.159 16.247 49.28 101.718 49.28-101.718 110.159-16.384-79.787-79.053 18.908-111.684z" />
<glyph unicode="&#xe99d;" horiz-adv-x="1408" d="M0 448h1408v-512h-1408v512z" />
<glyph unicode="&#xe99e;" horiz-adv-x="1408" d="M1273.907 960h-1139.812c-74.059 0-134.095-61.128-134.095-136.533v-750.936c0-75.405 60.036-136.531 134.095-136.531h1139.812c74.054 0 134.093 61.126 134.093 136.531v750.936c0 75.405-60.038 136.533-134.093 136.533z" />
<glyph unicode="&#xe99f;" horiz-adv-x="1408" d="M704 362.667l-98.56-52.772 18.773 111.755-79.652 79.19 110.159 16.179 49.28 101.649 49.28-101.717 110.157-16.179-79.782-79.19 18.771-111.686z" />
<glyph unicode="&#xe9a0;" horiz-adv-x="1408" d="M0 960h448v-1024h-448v1024z" />
<glyph unicode="&#xe9a1;" horiz-adv-x="1408" d="M960 960h448v-1024h-448v1024z" />
<glyph unicode="&#xe9a2;" horiz-adv-x="1408" d="M0 960h1408v-1024h-1408v1024z" />
<glyph unicode="&#xe9a3;" horiz-adv-x="1408" d="M1273.907 960h-1139.812c-74.059 0-134.095-61.128-134.095-136.533v-750.936c0-75.405 60.036-136.531 134.095-136.531h1139.812c74.054 0 134.093 61.126 134.093 136.531v750.936c0 75.405-60.038 136.533-134.093 136.533z" />
<glyph unicode="&#xe9a4;" horiz-adv-x="1408" d="M368.635 466.432l-98.561-52.77 18.774 111.752-79.652 79.19 110.159 16.179 49.28 101.717 49.213-101.717 110.159-16.179-79.787-79.19 18.908-111.684-98.493 52.701zM603.436 755.2h67.048v-68.266h-67.048v68.266zM670.483 618.667h67.046v-68.267h-67.046v68.267zM670.483 482.134h67.046v-68.267h-67.046v68.267zM603.436 345.6h67.048v-68.269h-67.048v68.269z" />
<glyph unicode="&#xe9a5;" horiz-adv-x="1408" d="M1273.907 960h-1139.812c-74.059 0-134.095-61.128-134.095-136.533v-750.936c0-75.405 60.036-136.531 134.095-136.531h1139.812c74.054 0 134.093 61.126 134.093 136.531v750.936c0 75.405-60.038 136.533-134.093 136.533z" />
<glyph unicode="&#xe9a6;" horiz-adv-x="1408" d="M0 960h1408v-512h-1408v512z" />
<glyph unicode="&#xe9a7;" horiz-adv-x="1408" d="M0 192h1408v-256h-1408v256z" />
<glyph unicode="&#xe9a8;" horiz-adv-x="1408" d="M0 960h1408v-1024h-1408v1024z" />
<glyph unicode="&#xe9a9;" horiz-adv-x="1408" d="M0 768h1408v-128h-1408v128z" />
<glyph unicode="&#xe9aa;" horiz-adv-x="1408" d="M0 640h1408v-384h-1408v384z" />
<glyph unicode="&#xe9ab;" horiz-adv-x="1408" d="M0 256h1408v-128h-1408v128z" />
<glyph unicode="&#xe9ac;" horiz-adv-x="1408" d="M0 960h1408v-1024h-1408v1024z" />
<glyph unicode="&#xe9ad;" horiz-adv-x="1408" d="M0 550.401h1408v-204.8h-1408v204.8zM0 140.8h1408v-204.8h-1408v204.8z" />
<glyph unicode="&#xe9ae;" horiz-adv-x="1408" d="M0 960h1408v-192h-1408v192z" />
<glyph unicode="&#xe9af;" horiz-adv-x="1408" d="M0 960l804.57-512-804.57-512v1024z" />
<glyph unicode="&#xe9b0;" horiz-adv-x="1408" d="M293.533 362.667l-98.56-52.772 18.774 111.755-79.653 79.19 110.159 16.179 49.28 101.649 49.28-101.717 110.159-16.179-79.787-79.19 18.774-111.686z" />
<glyph unicode="&#xe9b1;" horiz-adv-x="1408" d="M0 960h1408v-1024h-1408v1024z" />
<glyph unicode="&#xe9b2;" horiz-adv-x="1408" d="M0 413.866h1408v-68.267h-1408v68.267z" />
<glyph unicode="&#xe9b3;" horiz-adv-x="1408" d="M0 345.599h1408v-68.268h-1408v68.268z" />
<glyph unicode="&#xe9b4;" horiz-adv-x="1408" d="M0 277.331h1408v-68.262h-1408v68.262z" />
<glyph unicode="&#xe9b5;" horiz-adv-x="1408" d="M335.239 482.134h67.048v-68.267h-67.048v68.267zM469.334 550.401h67.048v-68.267h-67.048v68.267zM603.43 482.134h67.047v-68.267h-67.047v68.267zM670.477 345.601h67.046v-68.269h-67.046v68.269zM268.191 345.601h67.048v-68.269h-67.048v68.269zM603.43 209.069h67.047v-68.269h-67.047v68.269zM469.334 140.8h67.048v-68.269h-67.048v68.269zM335.239 209.069h67.048v-68.269h-67.048v68.269z" />
<glyph unicode="&#xe9b6;" horiz-adv-x="1408" d="M0 960h1408v-1024h-1408v1024z" />
<glyph unicode="&#xe9b7;" horiz-adv-x="1408" d="M335.24 618.667h-33.833c-18.749 0-33.215-15.282-33.215-34.133 0-18.3 14.871-34.134 33.215-34.134h33.833v-34.448c0-19.090 15.009-33.818 33.524-33.818 17.973 0 33.524 15.141 33.524 33.818v34.448h33.833c18.749 0 33.215 15.282 33.215 34.134 0 18.3-14.871 34.133-33.215 34.133h-33.833v34.448c0 19.090-15.009 33.819-33.524 33.819-17.973 0-33.524-15.141-33.524-33.819v-34.448zM201.144 755.2h67.048v-68.266h-67.048v68.266z" />
<glyph unicode="&#xe9b8;" horiz-adv-x="1408" d="M1408 320h-1408v-128h1408v128z" />
<glyph unicode="&#xe9b9;" horiz-adv-x="1408" d="M0 960h1408v-1024h-1408v1024z" />
<glyph unicode="&#xe9ba;" horiz-adv-x="1408" d="M335.238 550.4c0 0 67.048-204.8 268.19-204.8s402.287 204.8 402.287 204.8h-134.093l201.139 204.8-402.285-136.533-134.095 136.533-67.048-136.533-134.095-68.267z" />
<glyph unicode="&#xe9bb;" horiz-adv-x="1408" d="M335.239 345.599l335.238-136.531v-68.269l-402.285 136.531 67.048 68.268zM1072.762 345.599l-335.238-136.531v-68.269l402.285 136.531-67.046 68.268zM670.477 209.069h67.046v-136.538h-67.046v136.538z" />
<glyph unicode="&#xe9bc;" horiz-adv-x="1408" d="M0 960h1408v-1024h-1408v1024z" />
<glyph unicode="&#xe9bd;" horiz-adv-x="1408" d="M0 960h1408v-512h-1408v512z" />
<glyph unicode="&#xe9be;" horiz-adv-x="1408" d="M0 960l670.477-512-670.477-512v1024z" />
<glyph unicode="&#xe9bf;" horiz-adv-x="1408" d="M0 960h1408v-1024h-1408v1024z" />
<glyph unicode="&#xe9c0;" horiz-adv-x="1408" d="M0 256h1472v-320h-1472v320z" />
<glyph unicode="&#xe9c1;" horiz-adv-x="1408" d="M0 960h1472v-320h-1472v320z" />
<glyph unicode="&#xe9c2;" horiz-adv-x="1408" d="M0 960h1408v-1024h-1408v1024z" />
<glyph unicode="&#xe9c3;" horiz-adv-x="1408" d="M0 960h1408v-512h-1408v512z" />
<glyph unicode="&#xe9c4;" horiz-adv-x="1408" d="M0 960l804.57-512-804.57-512v1024z" />
<glyph unicode="&#xe9c5;" horiz-adv-x="1408" d="M301.713 362.667l-98.56-52.772 18.773 111.755-79.652 79.19 110.159 16.179 49.28 101.649 49.28-101.717 110.159-16.179-79.787-79.19 18.774-111.686z" />
<glyph unicode="&#xe9c6;" horiz-adv-x="1408" d="M0 960h1408v-1024h-1408v1024z" />
<glyph unicode="&#xe9c7;" horiz-adv-x="1408" d="M402.285 345.6h-402.285v204.8h402.285v409.6h201.143v-409.6h804.572v-204.8h-804.572v-409.6h-201.143v409.6z" />
<glyph unicode="&#xe9c8;" horiz-adv-x="1408" d="M0 960h1408v-1024h-1408v1024z" />
<glyph unicode="&#xe9c9;" horiz-adv-x="1408" d="M670.477 482.133h-670.477v-68.266h670.477v-477.867h67.046v477.867h670.477v68.266h-670.477v477.867h-67.046v-477.867z" />
<glyph unicode="&#xe9ca;" horiz-adv-x="1408" d="M603.428 550.4h67.048v-68.267h-670.477v68.267h603.428v409.6h67.048v-477.867h-67.048v68.267zM670.477 482.133h737.523v68.267h-804.572v-68.267h67.048v68.267h-67.048v-614.4h67.048v546.133z" />
<glyph unicode="&#xe9cb;" horiz-adv-x="1408" d="M804.57 345.6v68.267h-67.046v-477.867h67.046v409.6h603.43v68.267h-670.477v-68.267h67.046zM0 413.867h871.616v-68.267h-871.616v68.267zM737.523 960h67.046v-614.4h-67.046v614.4z" />
<glyph unicode="&#xe9cc;" horiz-adv-x="1408" d="M704 209.069c129.606 0 234.669 106.97 234.669 238.931s-105.062 238.934-234.669 238.934c-129.602 0-234.666-106.974-234.666-238.934 0-131.962 105.064-238.931 234.666-238.931z" />
<glyph unicode="&#xe9cd;" horiz-adv-x="1408" d="M603.428 550.401h67.049v-68.267h-67.049v68.267zM737.523 550.401h67.046v-68.267h-67.046v68.267zM737.523 413.867h67.046v-68.266h-67.046v68.266zM603.428 413.867h67.049v-68.266h-67.049v68.266z" />
<glyph unicode="&#xe9ce;" horiz-adv-x="1408" d="M670.477 550.401h67.046v-136.534h-67.046v136.534z" />
<glyph unicode="&#xe9cf;" horiz-adv-x="1408" d="M0 960h1408v-1024h-1408v1024z" />
<glyph unicode="&#xe9d0;" horiz-adv-x="1408" d="M0 960h640v-384h-640v384z" />
<glyph unicode="&#xe9d1;" horiz-adv-x="1408" d="M832 960h576v-384h-576v384z" />
<glyph unicode="&#xe9d2;" horiz-adv-x="1408" d="M832 320h576v-384h-576v384z" />
<glyph unicode="&#xe9d3;" horiz-adv-x="1408" d="M0 320h640v-384h-640v384z" />
<glyph unicode="&#xe9d4;" horiz-adv-x="1408" d="M832 448c0-70.692-42.981-128-96-128s-96 57.308-96 128c0 70.692 42.981 128 96 128s96-57.308 96-128z" />
<glyph unicode="&#xe9d5;" horiz-adv-x="1408" d="M704 544c0-17.673-14.327-32-32-32s-32 14.327-32 32c0 17.673 14.327 32 32 32s32-14.327 32-32z" />
<glyph unicode="&#xe9d6;" horiz-adv-x="1408" d="M768 352c0-17.673 14.327-32 32-32s32 14.327 32 32c0 17.673-14.327 32-32 32s-32-14.327-32-32z" />
<glyph unicode="&#xe9d7;" horiz-adv-x="1408" d="M832 544c0-17.673-14.327-32-32-32s-32 14.327-32 32c0 17.673 14.327 32 32 32s32-14.327 32-32z" />
<glyph unicode="&#xe9d8;" horiz-adv-x="1408" d="M768 448c0-35.346-14.327-64-32-64s-32 28.654-32 64c0 35.346 14.327 64 32 64s32-28.654 32-64z" />
<glyph unicode="&#xe9d9;" horiz-adv-x="1408" d="M640 352c0-17.673 14.327-32 32-32s32 14.327 32 32c0 17.673-14.327 32-32 32s-32-14.327-32-32z" />
<glyph unicode="&#xe9da;" horiz-adv-x="1408" d="M0 960h1408v-1024h-1408v1024z" />
<glyph unicode="&#xe9db;" horiz-adv-x="1408" d="M1273.907 960h-1139.812c-74.059 0-134.095-61.128-134.095-136.533v-750.936c0-75.405 60.036-136.531 134.095-136.531h1139.812c74.054 0 134.093 61.126 134.093 136.531v750.936c0 75.405-60.038 136.533-134.093 136.533z" />
<glyph unicode="&#xe9dc;" horiz-adv-x="1408" d="M0 960h704v-1024h-704v1024z" />
<glyph unicode="&#xe9dd;" horiz-adv-x="1408" d="M875.104 259.379c-55.11-72.16-141.338-118.579-238.152-118.579-166.613 0-301.714 137.555-301.714 307.199 0 169.642 135.101 307.2 301.714 307.2 96.814 0 183.041-46.422 238.152-118.579-42.573 31.539-96.147 50.312-154.342 50.312-138.788 0-251.428-106.974-251.428-238.933 0-131.961 112.64-238.931 251.428-238.931 58.195 0 111.77 18.771 154.342 50.31z" />
<glyph unicode="&#xe9de;" horiz-adv-x="1408" d="M871.616 448.001l67.053 34.133 33.523 68.267 33.523-68.267 67.046-34.133-67.046-34.134-33.523-68.266-33.523 68.266-67.053 34.134z" />
<glyph unicode="&#xe9df;" horiz-adv-x="1408" d="M1273.907 960h-1139.812c-74.059 0-134.095-61.128-134.095-136.533v-750.936c0-75.405 60.036-136.531 134.095-136.531h1139.812c74.054 0 134.093 61.126 134.093 136.531v750.936c0 75.405-60.038 136.533-134.093 136.533z" />
<glyph unicode="&#xe9e0;" horiz-adv-x="1408" d="M0 192h1408v-256h-1408v256z" />
<glyph unicode="&#xe9e1;" horiz-adv-x="1408" d="M0 960h1408v-512h-1408v512z" />
<glyph unicode="&#xe9e2;" horiz-adv-x="1408" d="M402.285 686.934h201.142l100.572-68.267 100.57 68.267h201.146l-201.146-68.267-67.046-68.267h-67.046l-67.049 68.267-201.142 68.267z" />
<glyph unicode="&#xe9e3;" horiz-adv-x="1408" d="M704 277.331c55.546 0 100.57 61.131 100.57 136.536s-45.024 136.534-100.57 136.534c-55.546 0-100.572-61.128-100.572-136.534s45.027-136.536 100.572-136.536z" />
<glyph unicode="&#xe9e4;" horiz-adv-x="1408" d="M536.381 482.134v-136.533l134.095-68.269h67.046l134.099 68.269v136.533l67.046-136.533-67.046-68.269-134.099-68.262h-67.046l-134.095 68.262-67.048 68.269 67.048 136.533z" />
<glyph unicode="&#xe9e5;" horiz-adv-x="1408" d="M1273.907 960h-1139.812c-74.059 0-134.095-61.128-134.095-136.533v-750.936c0-75.405 60.036-136.531 134.095-136.531h1139.812c74.054 0 134.093 61.126 134.093 136.531v750.936c0 75.405-60.038 136.533-134.093 136.533z" />
<glyph unicode="&#xe9e6;" horiz-adv-x="1408" d="M0 256h1408v-320h-1408v320z" />
<glyph unicode="&#xe9e7;" horiz-adv-x="1408" d="M0 960h1408v-320h-1408v320z" />
<glyph unicode="&#xe9e8;" horiz-adv-x="1408" d="M1273.907 960h-1139.812c-74.059 0-134.095-61.128-134.095-136.533v-750.936c0-75.405 60.036-136.531 134.095-136.531h1139.812c74.054 0 134.093 61.126 134.093 136.531v750.936c0 75.405-60.038 136.533-134.093 136.533z" />
<glyph unicode="&#xe9e9;" horiz-adv-x="1408" d="M0 256h1408v-320h-1408v320z" />
<glyph unicode="&#xe9ea;" horiz-adv-x="1408" d="M0 960h1408v-320h-1408v320z" />
<glyph unicode="&#xe9eb;" horiz-adv-x="1408" d="M704 482.134l-100.57 68.267-67.048-68.267 67.048-136.533 67.046 68.266h67.046l67.053-68.266 67.046 136.533-67.046 68.267-100.576-68.267z" />
<glyph unicode="&#xe9ec;" horiz-adv-x="1408" d="M0 960h1408v-1024h-1408v1024z" />
<glyph unicode="&#xe9ed;" horiz-adv-x="1408" d="M1273.907 960h-1139.812c-74.059 0-134.095-61.128-134.095-136.533v-750.936c0-75.405 60.036-136.531 134.095-136.531h1139.812c74.054 0 134.093 61.126 134.093 136.531v750.936c0 75.405-60.038 136.533-134.093 136.533z" />
<glyph unicode="&#xe9ee;" horiz-adv-x="1408" d="M0 960h1408v-512h-1408v512z" />
<glyph unicode="&#xe9ef;" horiz-adv-x="1408" d="M0 960l1408-512-1408-512v1024z" />
<glyph unicode="&#xe9f0;" horiz-adv-x="1408" d="M603.43 448c0-82.603-57.661-151.418-134.095-167.251v235.654c0 19.319-15.019 33.997-33.524 33.997-17.969 0-33.524-15.224-33.524-33.997v-235.654c-76.435 15.834-134.095 84.648-134.095 167.251 0 94.208 75.094 170.666 167.619 204.8 92.525-34.134 167.619-110.592 167.619-204.8zM670.477 448c0 131.959-105.062 238.933-234.666 204.8-129.603 34.133-234.667-72.841-234.667-204.8 0-131.962 105.064-238.931 234.667-238.931s234.666 106.97 234.666 238.931z" />
<glyph unicode="&#xe9f1;" horiz-adv-x="1408" d="M0 960h1408v-1024h-1408v1024z" />
<glyph unicode="&#xe9f2;" horiz-adv-x="1408" d="M1273.907 960h-1139.812c-74.059 0-134.095-61.128-134.095-136.533v-750.936c0-75.405 60.036-136.531 134.095-136.531h1139.812c74.054 0 134.093 61.126 134.093 136.531v750.936c0 75.405-60.038 136.533-134.093 136.533z" />
<glyph unicode="&#xe9f3;" horiz-adv-x="1408" d="M0 686.934h1408v-477.865h-1408v477.865z" />
<glyph unicode="&#xe9f4;" horiz-adv-x="1408" d="M603.43 535.245v-172.032c0-47.789-45.056-86.016-100.572-86.016h-134.095c-55.381 0.134-100.572 38.573-100.572 86.152v172.032c0 39.048 30.037 71.68 71.339 82.261 12.47 35.499 50.822 3.686 96.28 3.686 45.726 0 83.809 31.608 96.28-3.754 41.167-10.854 71.339-43.555 71.339-82.33z" />
<glyph unicode="&#xe9f5;" horiz-adv-x="1408" d="M603.43 482.134h67.046v-204.803h-67.046v204.803zM201.144 482.134h67.048v-204.803h-67.048v204.803z" />
<glyph unicode="&#xe9f6;" horiz-adv-x="1408" d="M603.43 345.599h67.046v-68.268h-67.046v68.268zM201.144 345.599h67.048v-68.268h-67.048v68.268z" />
<glyph unicode="&#xe9f7;" horiz-adv-x="1408" d="M603.43 550.401h67.046v-68.267h-67.046v68.267zM201.144 550.401h67.048v-68.267h-67.048v68.267z" />
<glyph unicode="&#xe9f8;" horiz-adv-x="1408" d="M335.238 550.401h67.048v-102.4h-67.048v102.4zM469.334 413.867h67.048v-102.398h-67.048v102.398z" />
<glyph unicode="&#xe9f9;" horiz-adv-x="1408" d="M469.332 550.401h67.048v-102.4h-67.048v102.4z" />
<glyph unicode="&#xe9fa;" horiz-adv-x="1408" d="M335.238 413.866h67.048v-102.397h-67.048v102.397z" />
<glyph unicode="&#xe9fb;" horiz-adv-x="1408" d="M402.286 550.401l-67.048 68.266h201.143l-67.048-68.266h-67.048z" />
<glyph unicode="&#xe9fc;" horiz-adv-x="1408" d="M402.285 686.934h67.047v-68.267h-67.047v68.267z" />
<glyph unicode="&#xe9fd;" horiz-adv-x="1408" d="M1273.907 960h-1139.812c-74.059 0-134.095-61.128-134.095-136.533v-750.936c0-75.405 60.036-136.531 134.095-136.531h1139.812c74.054 0 134.093 61.126 134.093 136.531v750.936c0 75.405-60.038 136.533-134.093 136.533z" />
<glyph unicode="&#xe9fe;" horiz-adv-x="1408" d="M0 277.331h1408v-341.331h-1408v341.331z" />
<glyph unicode="&#xe9ff;" horiz-adv-x="1408" d="M0 960h1408v-341.333h-1408v341.333z" />
<glyph unicode="&#xea00;" horiz-adv-x="1408" d="M704 140.8c166.63 0 301.715 137.536 301.715 307.2 0 169.662-135.085 307.2-301.715 307.2-166.633 0-301.715-137.538-301.715-307.2 0-169.664 135.082-307.2 301.715-307.2z" />
<glyph unicode="&#xea01;" horiz-adv-x="1408" d="M703.872 362.665l-98.559-52.771 18.774 111.753-79.653 79.19 110.159 16.179 49.28 101.717 49.216-101.717 110.157-16.179-79.789-79.19 18.912-111.683z" />
<glyph unicode="&#xea02;" horiz-adv-x="1408" d="M0 960h1408v-1024h-1408v1024z" />
<glyph unicode="&#xea03;" horiz-adv-x="1408" d="M1273.907 960h-1139.812c-74.059 0-134.095-61.128-134.095-136.533v-750.936c0-75.405 60.036-136.531 134.095-136.531h1139.812c74.054 0 134.093 61.126 134.093 136.531v750.936c0 75.405-60.038 136.533-134.093 136.533z" />
<glyph unicode="&#xea04;" horiz-adv-x="1408" d="M704 832l17.683-39.665 43.187-4.558-32.262-29.073 9.011-42.482-37.619 21.697-37.619-21.697 9.011 42.482-32.256 29.073 43.181 4.558 17.683 39.665zM401.681 472.335l-17.681 39.665-17.681-39.665-43.187-4.558 32.26-29.073-9.011-42.482 37.619 21.697 37.618-21.697-9.011 42.482 32.26 29.073-43.187 4.558zM1041.683 472.335l-17.683 39.665-17.683-39.665-43.181-4.558 32.256-29.073-9.011-42.482 37.619 21.697 37.619-21.697-9.011 42.482 32.262 29.073-43.187 4.558zM721.683 152.333l-17.683 39.667-17.683-39.667-43.181-4.557 32.256-29.069-9.011-42.483 37.619 21.696 37.619-21.696-9.011 42.483 32.262 29.069-43.187 4.557zM480.001 288l17.681-39.667 43.187-4.557-32.26-29.069 9.011-42.483-37.618 21.696-37.619-21.696 9.011 42.483-32.26 29.069 43.187 4.557 17.681 39.667zM497.681 696.335l-17.681 39.665-17.681-39.665-43.187-4.558 32.26-29.073-9.011-42.482 37.619 21.697 37.618-21.697-9.011 42.482 32.26 29.073-43.187 4.558zM928 288l17.683-39.667 43.187-4.557-32.262-29.069 9.011-42.483-37.619 21.696-37.619-21.696 9.011 42.483-32.256 29.069 43.181 4.557 17.683 39.667zM945.683 696.335l-17.683 39.665-17.683-39.665-43.181-4.558 32.256-29.073-9.011-42.482 37.619 21.697 37.619-21.697-9.011 42.482 32.262 29.073-43.187 4.558z" />
<glyph unicode="&#xea05;" horiz-adv-x="1408" d="M0 960h1408v-1024h-1408v1024z" />
<glyph unicode="&#xea06;" horiz-adv-x="1408" d="M402.285 345.6h-402.285v204.8h402.285v409.6h201.143v-409.6h804.572v-204.8h-804.572v-409.6h-201.143v409.6z" />
<glyph unicode="&#xea07;" horiz-adv-x="1408" d="M0 960h1408v-1024h-1408v1024z" />
<glyph unicode="&#xea08;" horiz-adv-x="1408" d="M1206.854 277.331v238.935c0 57.003-45.056 102.4-100.57 102.4h-134.093c-55.386 0-100.576-45.738-100.576-102.4v-238.935c0-12.422 67.053-136.531 167.622-136.531s167.616 124.448 167.616 136.531z" />
<glyph unicode="&#xea09;" horiz-adv-x="1408" d="M1072.762 413.866v-76.322h134.093v-65.672h-134.093v-131.072h-67.046v131.072h-134.099v65.672h134.099v76.322h-134.099v204.8h335.238v-204.8h-134.093z" />
<glyph unicode="&#xea0a;" horiz-adv-x="1408" d="M938.669 550.4h201.139v-68.267h-201.139v68.267z" />
<glyph unicode="&#xea0b;" horiz-adv-x="1408" d="M603.428 891.733h-469.333c-37.030 0-67.048-30.564-67.048-68.266v-341.334c0-37.702 30.018-68.266 67.048-68.266h469.333c37.027 0 67.049 30.564 67.049 68.266v341.334c0 37.702-30.022 68.266-67.049 68.266z" />
<glyph unicode="&#xea0c;" horiz-adv-x="1408" d="M335.238 618.667h-201.142v68.267h201.142v136.533h67.048v-136.533h201.143v-68.267h-201.143v-136.533h-67.048v136.533zM502.858 550.4v-68.266h100.572v68.266h-100.572zM502.858 823.467v-68.267h100.572v68.267h-100.572zM134.096 550.4v-68.266h100.571v68.266h-100.571zM134.096 823.467v-68.267h100.571v68.267h-100.571z" />
<glyph unicode="&#xea0d;" horiz-adv-x="1408" d="M0 960h1408v-1024h-1408v1024z" />
<glyph unicode="&#xea0e;" horiz-adv-x="1408" d="M670.477 686.933h-33.859c-18.774 0-33.189-15.292-33.189-34.133 0-18.296 14.885-34.133 33.189-34.133h33.859v-34.475c0-19.115 15.021-33.792 33.523-33.792 17.971 0 33.523 15.155 33.523 33.792v34.475h33.862c18.771 0 33.184 15.292 33.184 34.133 0 18.296-14.88 34.133-33.184 34.133h-33.862v34.475c0 19.115-15.021 33.792-33.523 33.792-17.971 0-33.523-15.155-33.523-33.792v-34.475zM938.669 482.133h-33.862c-18.771 0-33.184-15.292-33.184-34.133 0-18.296 14.88-34.133 33.184-34.133h33.862v-34.475c0-19.115 15.014-33.792 33.523-33.792 17.965 0 33.523 15.155 33.523 33.792v34.475h33.856c18.778 0 33.19 15.292 33.19 34.133 0 18.296-14.886 34.133-33.19 34.133h-33.856v34.475c0 19.115-15.021 33.792-33.523 33.792-17.971 0-33.523-15.155-33.523-33.792v-34.475zM670.477 277.331h-33.859c-18.774 0-33.189-15.29-33.189-34.131 0-18.298 14.885-34.131 33.189-34.131h33.859v-34.477c0-19.117 15.021-33.792 33.523-33.792 17.971 0 33.523 15.155 33.523 33.792v34.477h33.862c18.771 0 33.184 15.29 33.184 34.131 0 18.298-14.88 34.131-33.184 34.131h-33.862v34.477c0 19.115-15.021 33.792-33.523 33.792-17.971 0-33.523-15.155-33.523-33.792v-34.477zM402.286 482.133h-33.859c-18.773 0-33.188-15.292-33.188-34.133 0-18.296 14.884-34.133 33.188-34.133h33.859v-34.475c0-19.115 15.018-33.792 33.524-33.792 17.969 0 33.524 15.155 33.524 33.792v34.475h33.859c18.774 0 33.189 15.292 33.189 34.133 0 18.296-14.885 34.133-33.189 34.133h-33.859v34.475c0 19.115-15.019 33.792-33.524 33.792-17.969 0-33.524-15.155-33.524-33.792v-34.475z" />
<glyph unicode="&#xea0f;" horiz-adv-x="1408" d="M0 960h1408v-1024h-1408v1024z" />
<glyph unicode="&#xea10;" horiz-adv-x="1408" d="M0 960h448v-1024h-448v1024z" />
<glyph unicode="&#xea11;" horiz-adv-x="1408" d="M960 960h448v-1024h-448v1024z" />
<glyph unicode="&#xea12;" horiz-adv-x="1408" d="M0 960h1408v-1024h-1408v1024z" />
<glyph unicode="&#xea13;" horiz-adv-x="1408" d="M0 256h1408v-320h-1408v320z" />
<glyph unicode="&#xea14;" horiz-adv-x="1408" d="M0 960h1408v-320h-1408v320z" />
<glyph unicode="&#xea15;" horiz-adv-x="1408" d="M0 960h1408v-1024h-1408v1024z" />
<glyph unicode="&#xea16;" horiz-adv-x="1408" d="M149.782 960h-149.782v-170.667l1257.402-853.333h150.598v170.669l-1258.218 853.331z" />
<glyph unicode="&#xea17;" horiz-adv-x="1408" d="M49.957 960l1358.043-924.019v-99.981h-48.787l-1359.213 924.975v99.025h49.957z" />
<glyph unicode="&#xea18;" horiz-adv-x="1408" d="M1273.907 960h134.099v-170.667c0 0-870.964-568.527-1273.907-853.333h-134.095v170.669l1273.903 853.331z" />
<glyph unicode="&#xea19;" horiz-adv-x="1408" d="M1408 960h-45.472l-1362.528-924.813v-99.187h49.957l1358.043 924.227v99.773z" />
<glyph unicode="&#xea1a;" horiz-adv-x="1408" d="M512.048 960h385.078v-315.857h510.874v-392.079h-510.874v-316.064h-385.078v316.064h-512.048v392.079h512.048v315.857z" />
<glyph unicode="&#xea1b;" horiz-adv-x="1408" d="M592.842 960h222.313v-393.846h592.845v-236.307h-592.845v-393.846h-222.313v393.846h-592.842v236.307h592.842v393.846z" />
<glyph unicode="&#xea1c;" horiz-adv-x="1408" d="M0 960h1408v-1024h-1408v1024z" />
<glyph unicode="&#xea1d;" horiz-adv-x="1408" d="M201.144 755.2h1005.716v-614.4h-1005.716v614.4z" />
<glyph unicode="&#xea1e;" horiz-adv-x="1408" d="M201.144 755.2l502.856-307.2-502.856-307.2v614.4z" />
<glyph unicode="&#xea1f;" horiz-adv-x="1408" d="M268.191 482.133h67.048v-68.266h-67.048v68.266z" />
<glyph unicode="&#xea20;" horiz-adv-x="1408" d="M1206.854 755.2l-502.854-307.2 502.854-307.2v614.4z" />
<glyph unicode="&#xea21;" horiz-adv-x="1408" d="M469.332 891.733h67.048v-68.266h-67.048v68.266zM670.477 891.733h67.046v-68.266h-67.046v68.266zM871.616 891.733h67.046v-68.266h-67.046v68.266zM469.332 72.531h67.048v-68.262h-67.048v68.262zM670.477 72.531h67.046v-68.262h-67.046v68.262zM871.616 72.531h67.046v-68.262h-67.046v68.262z" />
<glyph unicode="&#xea22;" horiz-adv-x="1408" d="M704 277.331c92.576 0 167.622 76.412 167.622 170.669s-75.046 170.666-167.622 170.666c-92.572 0-167.617-76.41-167.617-170.666s75.046-170.669 167.617-170.669z" />
<glyph unicode="&#xea23;" horiz-adv-x="1408" d="M704 362.666l-98.558-52.772 18.773 111.754-79.652 79.19 110.157 16.179 49.28 101.649 49.28-101.717 110.163-16.179-79.789-79.189 18.771-111.686z" />
<glyph unicode="&#xea24;" d="M353.454 804.148h614.328c30.988 0 56.218-25.232 56.218-56.22v-599.854c0-30.988-25.23-56.22-56.218-56.22h-911.564c-30.988-0.182-56.218 25.050-56.218 56.038v300.018h353.454v356.238z" />
<glyph unicode="&#xea25;" d="M0 447.91h353.454v356.238h-297.236c-30.988 0-56.218-25.232-56.218-56.22v-300.018z" />
<glyph unicode="&#xea26;" d="M221.26 548.842l-10.674 39.726c-5.134-4.655-11.292-8.285-18.086-10.509l-0.356-0.101 29.116-29.116zM221.26 626.028c0 24.678-20.042 44.53-44.53 44.53-24.678 0-44.53-20.042-44.53-44.53 0-24.676 20.042-44.528 44.53-44.528 0.033 0 0.071 0 0.11 0 24.532 0 44.42 19.888 44.42 44.42 0 0.038 0 0.076 0 0.114v-0.006zM214.192 592.172l39.718-10.672-29.116 29.072c-2.331-7.133-5.958-13.275-10.64-18.443l0.038 0.043zM226.078 615.39l39.894 10.638-39.908 10.618c0.717-3.19 1.128-6.853 1.128-10.612 0-0.002 0-0.004 0-0.007v0c0-0.007 0-0.016 0-0.024 0-3.759-0.406-7.423-1.176-10.952l0.062 0.338zM224.766 641.492l29.144 29.060-39.782-10.674c4.656-5.12 8.293-11.257 10.536-18.029l0.102-0.357zM210.58 663.426l10.68 39.782-29.060-29.144c7.126-2.349 13.26-5.986 18.422-10.675l-0.042 0.037zM187.346 675.368l-10.616 39.902-10.638-39.902c3.179 0.718 6.831 1.13 10.578 1.13 0.019 0 0.038 0 0.057 0h-0.003c3.646 0 7.194-0.392 10.622-1.13zM161.212 674.058l-29.202 29.15 10.794-39.838c5.121 4.68 11.267 8.336 18.052 10.586l0.356 0.102zM139.318 659.872l-39.776 10.686 29.116-29.116c2.348 7.146 5.994 13.298 10.697 18.471l-0.037-0.041zM127.382 636.66l-39.902-10.632 39.902-10.616c-0.717 3.193-1.128 6.861-1.128 10.624s0.411 7.431 1.19 10.96l-0.062-0.336zM128.68 610.56l-29.138-29.060 39.782 10.672c-4.654 5.122-8.293 11.259-10.541 18.030l-0.103 0.358zM142.88 588.616l-10.68-39.774 29.074 29.136c-7.133 2.34-13.274 5.978-18.435 10.674l0.041-0.036zM166.106 576.682l10.618-39.894 10.63 39.894c-3.195-0.713-6.864-1.121-10.629-1.122h-0.001c-3.64 0-7.196 0.384-10.618 1.122z" />
<glyph unicode="&#xea27;" horiz-adv-x="1408" d="M0 960h1408v-1024h-1408v1024z" />
<glyph unicode="&#xea28;" horiz-adv-x="1408" d="M0 256h1408v-320h-1408v320z" />
<glyph unicode="&#xea29;" horiz-adv-x="1408" d="M0 960h1408v-320h-1408v320z" />
<glyph unicode="&#xea2a;" horiz-adv-x="1408" d="M704 362.666l-98.558-52.772 18.773 111.754-79.652 79.19 110.157 16.179 49.28 101.649 49.28-101.717 110.163-16.179-79.789-79.189 18.771-111.686z" />
<glyph unicode="&#xea2b;" horiz-adv-x="1408" d="M1273.907 960h-1139.812c-74.059 0-134.095-61.128-134.095-136.533v-750.936c0-75.405 60.036-136.531 134.095-136.531h1139.812c74.054 0 134.093 61.126 134.093 136.531v750.936c0 75.405-60.038 136.533-134.093 136.533z" />
<glyph unicode="&#xea2c;" horiz-adv-x="1408" d="M0 256h1408v-320h-1408v320z" />
<glyph unicode="&#xea2d;" horiz-adv-x="1408" d="M0 576h1408v-256h-1408v256z" />
<glyph unicode="&#xea2e;" horiz-adv-x="1408" d="M0 960h1408v-320h-1408v320z" />
<glyph unicode="&#xea2f;" horiz-adv-x="1408" d="M1273.907 960h-1139.812c-74.059 0-134.095-61.128-134.095-136.533v-750.936c0-75.405 60.036-136.531 134.095-136.531h1139.812c74.054 0 134.093 61.126 134.093 136.531v750.936c0 75.405-60.038 136.533-134.093 136.533z" />
<glyph unicode="&#xea30;" horiz-adv-x="1408" d="M0 960h448v-1024h-448v1024z" />
<glyph unicode="&#xea31;" horiz-adv-x="1408" d="M960 960h448v-1024h-448v1024z" />
<glyph unicode="&#xea32;" horiz-adv-x="1408" d="M0 960h1408v-1024h-1408v1024z" />
<glyph unicode="&#xea33;" horiz-adv-x="1408" d="M0 256h1408v-320h-1408v320z" />
<glyph unicode="&#xea34;" horiz-adv-x="1408" d="M0 960h1408v-320h-1408v320z" />
<glyph unicode="&#xea35;" horiz-adv-x="1408" d="M704 482.134c18.502 0 33.523 15.292 33.523 34.133s-15.021 34.134-33.523 34.134c-18.502 0-33.523-15.292-33.523-34.134s15.021-34.133 33.523-34.133zM838.093 482.134c18.509 0 33.53 15.292 33.53 34.133s-15.021 34.134-33.53 34.134c-18.502 0-33.523-15.292-33.523-34.134s15.021-34.133 33.523-34.133zM972.192 482.134c18.502 0 33.523 15.292 33.523 34.133s-15.021 34.134-33.523 34.134c-18.509 0-33.523-15.292-33.523-34.134s15.014-34.133 33.523-34.133z" />
<glyph unicode="&#xea36;" horiz-adv-x="1408" d="M771.046 413.867c18.509 0 33.523 15.292 33.523 34.134s-15.014 34.133-33.523 34.133c-18.502 0-33.523-15.292-33.523-34.133s15.021-34.134 33.523-34.134zM905.146 413.867c18.502 0 33.523 15.292 33.523 34.134s-15.021 34.133-33.523 34.133c-18.509 0-33.53-15.292-33.53-34.133s15.021-34.134 33.53-34.134z" />
<glyph unicode="&#xea37;" horiz-adv-x="1408" d="M804.57 482.134h67.046v-136.533h-67.046v136.533z" />
<glyph unicode="&#xea38;" horiz-adv-x="1408" d="M0 960v-1026.253l469.333 514.253-469.333 512z" />
<glyph unicode="&#xea39;" horiz-adv-x="1408" d="M0 960h1408v-1024h-1408v1024z" />
<glyph unicode="&#xea3a;" horiz-adv-x="1408" d="M0 960h268.191v-273.067h-268.191v273.067zM402.285 960h268.191v-273.067h-268.191v273.067zM0 550.4h268.191v-273.069h-268.191v273.069zM402.285 550.4h268.191v-273.069h-268.191v273.069zM670.477 960h737.523v-136.533h-737.523v136.533zM670.477 686.933h737.523v-136.533h-737.523v136.533z" />
<glyph unicode="&#xea3b;" horiz-adv-x="1408" d="M0 413.867v-136.536h1408v136.536h-1408zM268.191 413.867h134.095v-136.536h-134.095v136.536zM0 140.8h1408v-136.531h-1408v136.531z" />
<glyph unicode="&#xea3c;" horiz-adv-x="1408" d="M0 960h1408v-1024h-1408v1024z" />
<glyph unicode="&#xea3d;" horiz-adv-x="1408" d="M1024 960h384v-1024h-384v1024z" />
<glyph unicode="&#xea3e;" horiz-adv-x="1408" d="M0 960h384v-1024h-384v1024z" />
<glyph unicode="&#xea3f;" horiz-adv-x="1408" d="M736 384c17.67 0 32 28.654 32 64s-14.33 64-32 64c-17.67 0-32-28.654-32-64s14.33-64 32-64z" />
<glyph unicode="&#xea40;" horiz-adv-x="1408" d="M896 416c0-88.32-71.68-160-160-160s-160 71.68-160 160c0 88.32 71.68 160 160 160s160-71.68 160-160zM736 320c52.992 0 96 57.28 96 128s-43.008 128-96 128c-52.992 0-96-57.28-96-128s43.008-128 96-128z" />
<glyph unicode="&#xea41;" horiz-adv-x="1408" d="M0 960h1408v-1024h-1408v1024z" />
<glyph unicode="&#xea42;" horiz-adv-x="1408" d="M1273.907 960h-1139.812c-74.059 0-134.095-61.128-134.095-136.533v-750.936c0-75.405 60.036-136.531 134.095-136.531h1139.812c74.054 0 134.093 61.126 134.093 136.531v750.936c0 75.405-60.038 136.533-134.093 136.533z" />
<glyph unicode="&#xea43;" horiz-adv-x="1408" d="M0 448h1408v-512h-1408v512z" />
<glyph unicode="&#xea44;" horiz-adv-x="1408" d="M0 960h576v-1024h-576v1024z" />
<glyph unicode="&#xea45;" horiz-adv-x="1408" d="M287.439 362.672l-98.56-52.771 18.773 111.754-79.652 79.189 110.159 16.179 49.28 101.649 49.28-101.718 110.159-16.179-79.787-79.189 18.773-111.685z" />
<glyph unicode="&#xea46;" horiz-adv-x="1408" d="M0 960h1408v-1024h-1408v1024z" />
<glyph unicode="&#xea47;" horiz-adv-x="1408" d="M0-64v1024h201.143l1206.857-409.6v-204.8l-1206.857-409.6h-201.143z" />
<glyph unicode="&#xea48;" horiz-adv-x="1408" d="M0 960l1408-512-1408-512v1024z" />
<glyph unicode="&#xea49;" horiz-adv-x="1408" d="M0-64v1024h67.048l670.476-512-670.476-512h-67.048z" />
<glyph unicode="&#xea4a;" horiz-adv-x="1408" d="M0 960l670.477-512-670.477-512v1024z" />
<glyph unicode="&#xea4b;" horiz-adv-x="1408" d="M0 960h1408v-1024h-1408v1024z" />
<glyph unicode="&#xea4c;" horiz-adv-x="1408" d="M680.864 447.044c-181.83 78.371-101.239 319.761 72.749 307.747-35.264-18.432-40.365-52.838-20.25-84.651 22.528-35.772-2.010-93.184-32.448-107.179-50.016-22.869-60.006-83.968-20.115-115.917h0.064zM696.090 455.373c16.96 200.226 267.52 196.813 309.76 24.712-28.026 28.331-61.69 22.664-85.286-6.69-26.349-32.768-87.565-26.624-109.958-1.571-36.877 41.233-97.222 32.086-114.515-16.52v0.068zM702.253 435.37c193.101 41.984 263.098-202.89 113.779-294.5 18.509 35.699 3.354 66.899-31.104 81.235-38.49 16.109-50.688 77.485-33.664 106.632 28.032 47.992 1.747 103.97-48.941 106.701l-0.070-0.068zM452.57 210.432c38.888-6.829 63.36 17.542 66.109 55.296 3.151 42.323 56.655 73.045 89.173 65.536 53.505-12.288 97.69 30.447 84.481 80.418 98.963-174.082-108.148-317.442-239.83-201.18l0.067-0.070zM412.543 584.533c7.71-39.458 38.753-53.931 74.422-43.008 39.894 12.152 87.296-27.716 92.056-61.44 7.912-55.16 62.892-81.784 103.923-51.473-124.036-156.33-329.873-10.922-270.401 155.99v-0.068z" />
<glyph unicode="&#xea4d;" horiz-adv-x="1408" d="M0 960h1408v-1024h-1408v1024z" />
<glyph unicode="&#xea4e;" horiz-adv-x="1408" d="M0 256h1408v-320h-1408v320zM469.333 550.4h67.048v-68.267h-67.048v68.267zM469.333 413.867h67.048v-68.267h-67.048v68.267zM871.616 550.4h67.053v-68.267h-67.053v68.267zM871.616 413.867h67.053v-68.267h-67.053v68.267zM670.477 482.133h67.046v-68.266h-67.046v68.266zM0 960h1408v-320h-1408v320z" />
<glyph unicode="&#xea4f;" horiz-adv-x="1408" d="M0 960h1408v-1024h-1408v1024z" />
<glyph unicode="&#xea50;" horiz-adv-x="1408" d="M0 256h1408v-320h-1408v320z" />
<glyph unicode="&#xea51;" horiz-adv-x="1408" d="M0 960h1408v-320h-1408v320z" />
<glyph unicode="&#xea52;" horiz-adv-x="1408" d="M536.381 686.934h67.048v-68.267h-67.048v68.267zM670.477 755.2h67.046v-136.533h-67.046v136.533zM804.57 686.934h67.046v-68.267h-67.046v68.267z" />
<glyph unicode="&#xea53;" horiz-adv-x="1408" d="M737.523 755.2h67.046v-136.533h-67.046v136.533zM603.428 755.2h67.049v-136.533h-67.049v136.533z" />
<glyph unicode="&#xea54;" horiz-adv-x="1408" d="M871.616 379.734c0-94.211-75.091-170.665-167.616-170.665s-167.619 76.454-167.619 170.665v238.933h335.235v-238.933z" />
<glyph unicode="&#xea55;" horiz-adv-x="1408" d="M603.428 277.331h67.048v-68.262h-67.048v68.262zM737.523 277.331h67.046v-68.262h-67.046v68.262zM670.477 345.601h67.046v-68.269h-67.046v68.269zM603.428 413.867h67.048v-68.266h-67.048v68.266zM737.523 413.867h67.046v-68.266h-67.046v68.266zM670.477 482.134h67.046v-68.267h-67.046v68.267zM603.428 550.401h67.048v-68.267h-67.048v68.267zM737.523 550.401h67.046v-68.267h-67.046v68.267zM670.477 618.667h67.046v-68.266h-67.046v68.266zM804.57 618.667h67.046v-68.266h-67.046v68.266zM804.57 482.134h67.046v-68.267h-67.046v68.267zM804.57 345.601h67.046v-68.269h-67.046v68.269zM536.381 345.601h67.048v-68.269h-67.048v68.269zM536.381 482.134h67.048v-68.267h-67.048v68.267zM536.381 618.667h67.048v-68.266h-67.048v68.266z" />
<glyph unicode="&#xea56;" horiz-adv-x="1408" d="M0 960h1408v-1024h-1408v1024z" />
<glyph unicode="&#xea57;" horiz-adv-x="1408" d="M0 960h1408v-512h-1408v512z" />
<glyph unicode="&#xea58;" horiz-adv-x="1408" d="M402.285 618.666h558.732v-341.335h-558.732v341.335z" />
<glyph unicode="&#xea59;" horiz-adv-x="1408" d="M625.785 504.891h111.745v-227.553h-111.745v227.553z" />
<glyph unicode="&#xea5a;" horiz-adv-x="1408" d="M514.024 448v-170.669h335.237v170.669c0 94.89-75.091 170.666-167.616 170.666-93.199 0-167.621-76.458-167.621-170.666zM625.77 447.431c0 31.858 25.923 57.458 55.875 57.458 30.842 0 55.872-24.349 55.872-57.458v-170.1h-111.747v170.1z" />
<glyph unicode="&#xea5b;" horiz-adv-x="1408" d="M0 960h1408v-1024h-1408v1024z" />
<glyph unicode="&#xea5c;" horiz-adv-x="1408" d="M0 256h1408v-320h-1408v320z" />
<glyph unicode="&#xea5d;" horiz-adv-x="1408" d="M0 960h1408v-320h-1408v320z" />
<glyph unicode="&#xea5e;" horiz-adv-x="1408" d="M0 960h1408v-1024h-1408v1024z" />
<glyph unicode="&#xea5f;" horiz-adv-x="1408" d="M0 960h1408v-512h-1408v512z" />
<glyph unicode="&#xea60;" horiz-adv-x="1408" d="M1273.907 960h-1139.812c-74.059 0-134.095-61.128-134.095-136.533v-750.936c0-75.405 60.036-136.531 134.095-136.531h1139.812c74.054 0 134.093 61.126 134.093 136.531v750.936c0 75.405-60.038 136.533-134.093 136.533z" />
<glyph unicode="&#xea61;" horiz-adv-x="1408" d="M0 960h448v-1024h-448v1024z" />
<glyph unicode="&#xea62;" horiz-adv-x="1408" d="M960 960h448v-1024h-448v1024z" />
<glyph unicode="&#xea63;" horiz-adv-x="1408" d="M0 960h1408v-1024h-1408v1024z" />
<glyph unicode="&#xea64;" horiz-adv-x="1408" d="M0 209.069v-136.538h1408v136.538h-1408zM0 823.466h1408v-136.533h-1408v136.533zM662.093 345.6h-125.712l62.891 102.4-62.891 102.4h125.712l41.907 68.266 41.907-68.266h125.709l-62.886-102.4 62.886-102.4h-125.709l-41.907-68.269-41.907 68.269zM636.952 448l67.048 68.266 67.046-68.266-67.046-68.267-67.048 68.267z" />
<glyph unicode="&#xea65;" horiz-adv-x="1408" d="M0 960h1408v-1024h-1408v1024z" />
<glyph unicode="&#xea66;" horiz-adv-x="1408" d="M704 277.331c-92.526 0-167.619 76.461-167.619 170.669s75.093 170.667 167.619 170.667c92.525 0 167.616-76.459 167.616-170.667s-75.091-170.669-167.616-170.669zM704 345.6c55.514 0 100.57 45.875 100.57 102.4s-45.056 102.4-100.57 102.4c-55.514 0-100.572-45.875-100.572-102.4s45.058-102.4 100.572-102.4z" />
<glyph unicode="&#xea67;" horiz-adv-x="1408" d="M704 413.867c18.515 0 33.523 15.282 33.523 34.133s-15.008 34.133-33.523 34.133c-18.515 0-33.523-15.282-33.523-34.133s15.008-34.133 33.523-34.133z" />
<glyph unicode="&#xea68;" horiz-adv-x="1408" d="M0 256h1408v-320h-1408v320z" />
<glyph unicode="&#xea69;" horiz-adv-x="1408" d="M0 960h1408v-320h-1408v320z" />
<glyph unicode="&#xea6a;" horiz-adv-x="1408" d="M0 960h1408v-1024h-1408v1024z" />
<glyph unicode="&#xea6b;" horiz-adv-x="1408" d="M0 256h1408v-320h-1408v320z" />
<glyph unicode="&#xea6c;" horiz-adv-x="1408" d="M670.477 413.867h67.046v-33.792c0-19.798 15.021-34.475 33.523-34.475 17.971 0 33.523 15.428 33.523 34.475v136.533c0 18.637 15.558 33.792 33.523 33.792 18.509 0 33.523-14.746 33.523-33.792v-102.741h99.904c18.906 0 34.195-15.838 34.195-34.134 0-18.842-14.886-34.133-34.195-34.133h-535.041c-18.908 0-34.194 15.838-34.194 34.133 0 14.473 8.716 26.829 21.455 31.812 1.676 4.369 4.224 8.533 7.778 12.083l95.208 96.939c13.007 13.244 34.529 12.765 47.268-0.137 13.141-13.312 13.544-34.474 0.268-47.991l-57.527-58.573h86.692v33.792c0 19.114 15.555 34.474 33.524 34.474 18.504 0 33.525-14.609 33.525-34.474v-33.792z" />
<glyph unicode="&#xea6d;" horiz-adv-x="1408" d="M0 960h1408v-320h-1408v320z" />
<glyph unicode="&#xea6e;" horiz-adv-x="1408" d="M0 960h1408v-1024h-1408v1024z" />
<glyph unicode="&#xea6f;" horiz-adv-x="1408" d="M704 345.6c-92.526 0-167.619 45.875-167.619 102.4s75.093 102.4 167.619 102.4c92.525 0 167.616-45.875 167.616-102.4s-75.091-102.4-167.616-102.4zM704 396.8c55.514 0 100.57 34.406 100.57 76.8 0 42.325-45.056 76.8-100.57 76.8s-100.572-34.406-100.572-76.8c0-42.325 45.058-76.8 100.572-76.8z" />
<glyph unicode="&#xea70;" horiz-adv-x="1408" d="M704 413.867c18.515 0 33.523 30.564 33.523 68.266s-15.008 68.267-33.523 68.267c-18.515 0-33.523-30.564-33.523-68.267s15.008-68.266 33.523-68.266z" />
<glyph unicode="&#xea71;" horiz-adv-x="1408" d="M0 256h1408v-320h-1408v320z" />
<glyph unicode="&#xea72;" horiz-adv-x="1408" d="M0 960h1408v-320h-1408v320z" />
<glyph unicode="&#xea73;" horiz-adv-x="1408" d="M0 960h1408v-1024h-1408v1024z" />
<glyph unicode="&#xea74;" horiz-adv-x="1408" d="M402.285 345.6h-402.285v204.8h402.285v409.6h201.143v-409.6h804.572v-204.8h-804.572v-409.6h-201.143v409.6z" />
<glyph unicode="&#xea75;" horiz-adv-x="1408" d="M469.333 482.133h-469.333v-68.266h469.333v-477.867h67.048v477.867h871.619v68.266h-871.619v477.867h-67.048v-477.867z" />
<glyph unicode="&#xea76;" horiz-adv-x="1408" d="M0 960h1408v-1024h-1408v1024z" />
<glyph unicode="&#xea77;" horiz-adv-x="1408" d="M0 960h448v-1024h-448v1024z" />
<glyph unicode="&#xea78;" horiz-adv-x="1408" d="M960 960h448v-1024h-448v1024z" />
<glyph unicode="&#xea79;" horiz-adv-x="1408" d="M0 960h1408v-1024h-1408v1024z" />
<glyph unicode="&#xea7a;" horiz-adv-x="1408" d="M0 960l670.477-546.133-670.477-477.867v1024zM1408 960l-670.477-546.133 670.477-477.867v1024z" />
<glyph unicode="&#xea7b;" horiz-adv-x="1408" d="M581.101 448l-581.101 409.6v102.4h100.572l603.428-425.301 603.43 425.301h100.57v-102.4l-581.101-409.6 581.101-409.6v-102.4h-100.57l-603.43 425.301-603.428-425.301h-100.572v102.4l581.101 409.6z" />
<glyph unicode="&#xea7c;" horiz-adv-x="1408" d="M0 960h1408v-1024h-1408v1024z" />
<glyph unicode="&#xea7d;" horiz-adv-x="1408" d="M0 256h1408v-320h-1408v320z" />
<glyph unicode="&#xea7e;" horiz-adv-x="1408" d="M0 960h1408v-320h-1408v320z" />
<glyph unicode="&#xea7f;" horiz-adv-x="1408" d="M0 960v-1024l896 513.124-896 510.876z" />
<glyph unicode="&#xea80;" horiz-adv-x="1408" d="M192 448l64 42.667 32 85.333 32-85.333 64-42.667-64-42.667-32-85.333-32 85.333-64 42.667z" />
<glyph unicode="&#xea81;" horiz-adv-x="1408" d="M0 960h1408v-1024h-1408v1024z" />
<glyph unicode="&#xea82;" horiz-adv-x="1408" d="M704 209.069c129.6 0 234.662 106.97 234.662 238.931 0 131.959-105.062 238.933-234.662 238.933-129.604 0-234.668-106.974-234.668-238.933 0-131.962 105.064-238.931 234.668-238.931z" />
<glyph unicode="&#xea83;" horiz-adv-x="1408" d="M0 960h1408v-1024h-1408v1024z" />
<glyph unicode="&#xea84;" horiz-adv-x="1408" d="M0 277.331h1408v-68.262h-1408v68.262z" />
<glyph unicode="&#xea85;" horiz-adv-x="1408" d="M0 209.069h1408v-273.069h-1408v273.069z" />
<glyph unicode="&#xea86;" horiz-adv-x="1408" d="M0 618.667h1408v-341.336h-1408v341.336z" />
<glyph unicode="&#xea87;" horiz-adv-x="1408" d="M0 686.933h1408v-68.266h-1408v68.266z" />
<glyph unicode="&#xea88;" horiz-adv-x="1408" d="M832.326 556.271c4.832 0 33.53 45.739 33.53 102.4 0 56.525-28.698 102.4-33.53 102.4-4.691 0-33.523-45.875-33.523-102.4 0-56.661 28.832-102.4 33.523-102.4zM635.276 586.24c-3.352-3.413-55.649 8.192-94.805 48.264-39.223 40.004-50.755 93.116-47.336 96.529 3.352 3.413 55.516-8.192 94.805-48.264 39.29-40.004 50.755-93.116 47.403-96.598l-0.067 0.068zM761.261 276.787c3.347 3.206 55.648-7.712 94.867-45.056 39.226-37.549 50.758-87.174 47.405-90.387-3.354-3.206-55.648 7.718-94.938 45.056-39.226 37.549-50.758 87.181-47.334 90.387zM635.276 276.787c-3.352 3.206-55.649-7.712-94.805-45.056-39.223-37.549-50.755-87.174-47.336-90.387 3.352-3.206 55.516 7.718 94.805 45.056 39.29 37.549 50.755 87.181 47.403 90.387h-0.067z" />
<glyph unicode="&#xea89;" horiz-adv-x="1408" d="M704 140.8c23.936 0 167.616 137.555 167.616 307.2 0 169.643-143.68 307.2-167.616 307.2s-167.619-137.557-167.619-307.2c0-169.645 143.683-307.2 167.619-307.2z" />
<glyph unicode="&#xea8a;" horiz-adv-x="1408" d="M569.905 345.6c4.693 0 33.524 45.875 33.524 102.4s-28.831 102.4-33.524 102.4c-4.693 0-33.524-45.875-33.524-102.4s28.831-102.4 33.524-102.4zM838.093 345.6c4.698 0 33.523 45.875 33.523 102.4s-28.826 102.4-33.523 102.4c-4.691 0-33.523-45.875-33.523-102.4s28.832-102.4 33.523-102.4z" />
<glyph unicode="&#xea8b;" horiz-adv-x="1408" d="M737.523 448c0 56.554-15.008 102.4-33.523 102.4s-33.523-45.846-33.523-102.4c0-56.554 15.008-102.4 33.523-102.4s33.523 45.846 33.523 102.4z" />
<glyph unicode="&#xea8c;" horiz-adv-x="1408" d="M0 960h1408v-1024h-1408v1024z" />
<glyph unicode="&#xea8d;" horiz-adv-x="1408" d="M684.288 312.493c6.502-0.685 13.075-1.024 19.712-1.024 6.707 0 13.21 0.339 19.712 1.024l-19.712 50.174-19.712-50.174zM593.373 349.696c-35.066 28.262-56.991 69.496-56.991 115.371 0 54.135 30.574 101.717 76.703 129.024l57.391-146.091-77.103-98.304zM794.918 594.091c46.131-27.307 76.704-74.889 76.704-129.024 0-45.944-21.99-87.177-56.992-115.371l-77.107 98.304 57.395 146.091zM788.211 597.914c-24.806 13.244-53.504 20.753-84.211 20.753s-59.469-7.51-84.21-20.753l84.21-107.179 84.211 107.179z" />
<glyph unicode="&#xea8e;" horiz-adv-x="1408" d="M704 140.8c-166.614 0-301.715 137.555-301.715 307.2 0 169.643 135.101 307.2 301.715 307.2 166.611 0 301.715-137.557 301.715-307.2 0-169.645-135.104-307.2-301.715-307.2zM704 209.069c129.6 0 234.669 106.97 234.669 238.931s-105.069 238.933-234.669 238.933c-129.604 0-234.668-106.973-234.668-238.933 0-131.962 105.064-238.931 234.668-238.931z" />
<glyph unicode="&#xea8f;" horiz-adv-x="1408" d="M0 960h1408v-1024h-1408v1024z" />
<glyph unicode="&#xea90;" horiz-adv-x="1408" d="M536.38 618.667h33.524l33.524-68.266h-67.048v68.266zM603.428 550.401h67.049v-68.267h-67.049v68.267zM536.38 482.134h67.048v-68.267h-67.048v68.267zM469.332 413.867h67.048v-68.267h-67.048v68.267zM469.332 345.6h67.048v-68.269h-67.048v68.269zM435.809 345.6h33.523v-68.269h-67.047l33.524 68.269zM603.428 413.867h134.095v-136.536h-134.095v136.536zM871.616 618.667h-33.523l-33.523-68.266h67.046v68.266zM804.57 550.401h-67.046v-68.267h67.046v68.267zM871.616 482.134h-67.046v-68.267h67.046v68.267zM938.669 413.867h-67.053v-68.267h67.053v68.267zM938.669 345.6h-67.053v-68.269h67.053v68.269zM972.192 345.6h-33.523v-68.269h67.046l-33.523 68.269zM804.57 413.867h-67.046v-136.536h67.046v136.536z" />
<glyph unicode="&#xea91;" horiz-adv-x="1408" d="M603.429 482.134h67.048v-68.267h-67.048v68.267zM536.381 413.867h67.048v-136.536h-67.048v136.536zM536.381 550.401h67.048v-68.267h-67.048v68.267zM502.858 482.134h33.524v-68.267h-67.048l33.524 68.267zM804.57 482.134h-67.046v-68.267h67.046v68.267zM871.622 413.867h-67.053v-136.536h67.053v136.536zM871.622 550.401h-67.053v-68.267h67.053v68.267zM905.146 482.134h-33.523v-68.267h67.046l-33.523 68.267zM737.523 550.401h-67.046v-136.534h67.046v136.534z" />
<glyph unicode="&#xea92;" horiz-adv-x="1408" d="M670.477 618.667h67.046v-68.266h-67.046v68.266z" />
<glyph unicode="&#xea93;" horiz-adv-x="1408" d="M0 960h1408v-256h-1408v256zM0 192h1408v-256h-1408v256z" />
<glyph unicode="&#xea94;" horiz-adv-x="1408" d="M0 960h1408v-1024h-1408v1024z" />
<glyph unicode="&#xea95;" horiz-adv-x="1408" d="M704 209.069c129.6 0 234.662 106.97 234.662 238.931 0 131.959-105.062 238.933-234.662 238.933-129.604 0-234.668-106.974-234.668-238.933 0-131.962 105.064-238.931 234.668-238.931z" />
<glyph unicode="&#xea96;" horiz-adv-x="1408" d="M0 413.867h1408v-477.867h-1408v477.867z" />
<glyph unicode="&#xea97;" horiz-adv-x="1408" d="M0 413.867h1408v-68.267h-1408v68.267zM0 277.331h1408v-68.262h-1408v68.262zM0 140.8h1408v-68.269h-1408v68.269z" />
<glyph unicode="&#xea98;" horiz-adv-x="1408" d="M536.383 823.467l167.617-68.267 167.622 68.267h-335.24z" />
<glyph unicode="&#xea99;" horiz-adv-x="1408" d="M0 960h1408v-1024h-1408v1024z" />
<glyph unicode="&#xea9a;" horiz-adv-x="1408" d="M0 960h1408v-256h-1408v256z" />
<glyph unicode="&#xea9b;" horiz-adv-x="1408" d="M0 448h1408v-256h-1408v256z" />
<glyph unicode="&#xea9c;" horiz-adv-x="1408" d="M0 192h1408v-256h-1408v256z" />
<glyph unicode="&#xea9d;" horiz-adv-x="1408" d="M0 960l804.57-512-804.57-512v1024z" />
<glyph unicode="&#xea9e;" horiz-adv-x="1408" d="M402.284 219.987c-19.444-7.098-40.228-10.918-61.885-10.918-113.981 0-206.306 106.97-206.306 238.931s92.392 238.934 206.306 238.934c21.589 0 42.374-3.823 61.885-10.923-83.676-30.447-144.42-121.037-144.42-228.011s60.745-197.562 144.42-228.013zM402.284 618.667h67.048v-68.267h-67.048v68.267zM402.284 482.134h67.048v-68.267h-67.048v68.267zM402.284 345.6h67.048v-68.269h-67.048v68.269z" />
<glyph unicode="&#xea9f;" horiz-adv-x="1408" d="M0 960h1408v-1024h-1408v1024z" />
<glyph unicode="&#xeaa0;" horiz-adv-x="1408" d="M0 755.2h1408v-68.266h-1408v68.266z" />
<glyph unicode="&#xeaa1;" horiz-adv-x="1408" d="M0 686.933h1408v-477.864h-1408v477.864z" />
<glyph unicode="&#xeaa2;" horiz-adv-x="1408" d="M368.762 277.331c92.573 0 167.619 76.412 167.619 170.669s-75.046 170.666-167.619 170.666c-92.573 0-167.619-76.41-167.619-170.666s75.046-170.669 167.619-170.669z" />
<glyph unicode="&#xeaa3;" horiz-adv-x="1408" d="M368.635 381.37l-80.457-43.008 15.421 91.136-65.036 64.444 89.844 13.312 40.228 82.876 40.228-82.944 89.844-13.38-65.036-64.512 15.421-91.204z" />
<glyph unicode="&#xeaa4;" horiz-adv-x="1408" d="M0 209.069h1408v-68.269h-1408v68.269z" />
<glyph unicode="&#xeaa5;" horiz-adv-x="1408" d="M0 960h1408v-1024h-1408v1024z" />
<glyph unicode="&#xeaa6;" horiz-adv-x="1408" d="M938.662 448.001c0-131.962-105.062-238.932-234.662-238.932-129.604 0-234.668 106.97-234.668 238.932 0 76.458 157.562 108.544 290.182 96.461 14.080 3.823 29.235 5.939 45.056 5.939 74.086 0 134.093-45.875 134.093-102.4z" />
<glyph unicode="&#xeaa7;" horiz-adv-x="1408" d="M670.477 482.134c0 0 60.006 68.266 134.093 68.266s134.093-45.875 134.093-102.4c0 131.96-105.062 238.934-234.662 238.934-93.667 0-174.526-55.843-212.14-136.67-22.528-68.13-22.528-88.064-22.528-102.264 33.524-34.133 70.803-34.133 100.572-34.133s56.521 13.176 74.961 34.133l25.613 34.134z" />
<glyph unicode="&#xeaa8;" horiz-adv-x="1408" d="M1005.715 618.667h134.093l-134.093 136.533h-67.046l67.046-136.533zM402.287 618.667h-134.095l134.095 136.533h67.048l-67.048-136.533zM1005.715 277.331h134.093l-134.093-136.531h-67.046l67.046 136.531zM402.287 277.331h-134.095l134.095-136.531h67.048l-67.048 136.531z" />
<glyph unicode="&#xeaa9;" horiz-adv-x="1408" d="M0 960h1408v-1024h-1408v1024z" />
<glyph unicode="&#xeaaa;" horiz-adv-x="1408" d="M0 256h1408v-320h-1408v320z" />
<glyph unicode="&#xeaab;" horiz-adv-x="1408" d="M0 960h1408v-320h-1408v320z" />
<glyph unicode="&#xeaac;" horiz-adv-x="1408" d="M0-64v1024l512-340.584v-340.587l-512-342.829z" />
<glyph unicode="&#xeaad;" horiz-adv-x="1408" d="M0 960h1408v-1024h-1408v1024z" />
<glyph unicode="&#xeaae;" horiz-adv-x="1408" d="M134.096 789.675c0 18.637 15.555 33.792 33.523 33.792 18.506 0 33.524-14.746 33.524-33.792v-137.216c0-18.637-15.555-33.792-33.524-33.792-18.505 0-33.523 14.746-33.523 33.792v137.216zM201.143 653.141c0 18.637 15.555 33.792 33.524 33.792 18.506 0 33.524-14.746 33.524-33.792v-137.216c0-18.637-15.555-33.792-33.524-33.792-18.505 0-33.524 14.746-33.524 33.792v137.216zM201.143 380.075c0 18.637 15.555 33.792 33.524 33.792 18.506 0 33.524-14.746 33.524-33.792v-137.214c0-18.637-15.555-33.792-33.524-33.792-18.505 0-33.524 14.746-33.524 33.792v137.214zM134.096 243.539c0 18.637 15.555 33.792 33.523 33.792 18.506 0 33.524-14.746 33.524-33.792v-137.216c0-18.637-15.555-33.792-33.524-33.792-18.505 0-33.523 14.746-33.523 33.792v137.216zM134.096 516.267c0 18.842 15.555 34.133 33.523 34.133 18.506 0 33.524-15.838 33.524-34.133 0-18.842-15.555-34.134-33.524-34.134-18.505 0-33.523 15.838-33.523 34.134zM201.143 789.333c0 18.842 15.555 34.134 33.524 34.134 18.506 0 33.524-15.838 33.524-34.134 0-18.842-15.555-34.133-33.524-34.133-18.505 0-33.524 15.838-33.524 34.133zM134.096 448c0 18.842 15.555 34.133 33.523 34.133 18.506 0 33.524-15.837 33.524-34.133 0-18.842-15.555-34.133-33.524-34.133-18.505 0-33.523 15.837-33.523 34.133zM201.143 106.669c0 18.842 15.555 34.131 33.524 34.131 18.506 0 33.524-15.84 33.524-34.131 0-18.842-15.555-34.138-33.524-34.138-18.505 0-33.524 15.84-33.524 34.138zM134.096 379.733c0 18.842 15.555 34.134 33.523 34.134 18.506 0 33.524-15.838 33.524-34.134 0-18.842-15.555-34.133-33.524-34.133-18.505 0-33.523 15.838-33.523 34.133z" />
<glyph unicode="&#xeaaf;" horiz-adv-x="1408" d="M771.046 345.6c92.576 0 167.622 76.41 167.622 170.667s-75.046 170.666-167.622 170.666c-92.576 0-167.619-76.41-167.619-170.666s75.043-170.667 167.619-170.667z" />
<glyph unicode="&#xeab0;" horiz-adv-x="1408" d="M536.381 482.133l67.048-136.533 167.618-68.269 167.622 68.269 67.046 136.533v-204.802l-234.669-68.262-234.666 68.262v204.802z" />
<glyph unicode="&#xeab1;" horiz-adv-x="1408" d="M0 960h1408v-1024h-1408v1024z" />
<glyph unicode="&#xeab2;" horiz-adv-x="1408" d="M704 277.331c92.525 0 167.622 76.461 167.622 170.669s-75.098 170.667-167.622 170.667c-92.524 0-167.617-76.459-167.617-170.667s75.093-170.669 167.617-170.669z" />
<glyph unicode="&#xeab3;" horiz-adv-x="1408" d="M0 209.069h1408v-273.069h-1408v273.069zM0 960h1408v-273.067h-1408v273.067z" />
<glyph unicode="&#xeab4;" horiz-adv-x="1408" d="M0 960h1408v-1024h-1408v1024z" />
<glyph unicode="&#xeab5;" horiz-adv-x="1408" d="M0 192h1408v-256h-1408v256zM0 960h1408v-256h-1408v256z" />
<glyph unicode="&#xeab6;" horiz-adv-x="1408" d="M704 686.933l-234.668-409.602h134.095l100.573-68.262 100.57 68.262h134.093l-234.662 409.602z" />
<glyph unicode="&#xeab7;" horiz-adv-x="1408" d="M0 960h1408v-1024h-1408v1024z" />
<glyph unicode="&#xeab8;" horiz-adv-x="1408" d="M402.285 72.531l301.715 750.936 301.715-750.936h-603.43z" />
<glyph unicode="&#xeab9;" horiz-adv-x="1408" d="M469.332 72.531l234.668 614.403 234.662-614.403h-469.331z" />
<glyph unicode="&#xeaba;" horiz-adv-x="1408" d="M402.285 72.531l301.715 341.335 301.715-341.335h-603.43z" />
<glyph unicode="&#xeabb;" horiz-adv-x="1408" d="M0 960h1408v-1024h-1408v1024z" />
<glyph unicode="&#xeabc;" horiz-adv-x="1408" d="M0 960h1408v-512h-1408v512z" />
<glyph unicode="&#xeabd;" horiz-adv-x="1408" d="M268.191 618.667h268.191v-68.267h-268.191v68.267z" />
<glyph unicode="&#xeabe;" horiz-adv-x="1408" d="M335.908 745.506c-20.651 5.462-44.252 9.694-67.718 9.694-67.048 0-67.048-34.133-67.048-68.267s67.048-68.266 67.048-68.266h268.191c0 0 67.048 34.133 67.048 68.266s0 68.267-67.048 68.267c-23.467 0-47.068-4.232-67.718-9.694 0.47 3.209 0.671 6.417 0.671 9.694 0 37.683-30.037 68.267-67.048 68.267s-67.048-30.584-67.048-68.267c0-3.277 0.201-6.485 0.671-9.694z" />
<glyph unicode="&#xeabf;" horiz-adv-x="1408" d="M0 960h1408v-1024h-1408v1024z" />
<glyph unicode="&#xeac0;" horiz-adv-x="1408" d="M0 960h1408v-1024h-1408v1024z" />
<glyph unicode="&#xeac1;" horiz-adv-x="1408" d="M134.093 823.467h201.143v-750.936h-201.143v750.936z" />
<glyph unicode="&#xeac2;" horiz-adv-x="1408" d="M335.238 823.467h201.143v-750.936h-201.143v750.936z" />
<glyph unicode="&#xeac3;" horiz-adv-x="1408" d="M335.238 823.467h201.143v-750.936h-201.143v750.936z" />
<glyph unicode="&#xeac4;" horiz-adv-x="1408" d="M603.43 823.467h670.477v-750.936h-670.477v750.936zM840.442 235.277l3.891 3.008 1.606-3.008c2.214-4.096 8.314-3.955 12.339 0l3.149 3.213 2.682-3.072c3.354-4.096 9.658-4.096 13.683 0 2.944 2.867 3.347 2.931 5.229 0.678 1.069-1.229 4.358-2.726 7.238-3.206 5.229-0.954 5.363-0.89 8.384 5.325 2.682 5.19 3.014 7.238 2.413 12.288-0.403 3.411-0.87 8.736-1.005 11.949-0.134 5.869-0.134 5.939 6.163 8.87 3.354 1.638 7.379 3.827 8.922 4.915 2.477 1.779 9.382 12.768 9.382 15.021 0 0.544-2.682 1.363-6.029 1.914-13.075 2.048-15.29 11.603-6.707 29.354 13.882 28.808 22.259 57.002 22.33 74.957 0 7.987 0.333 10.717 1.139 8.874 3.085-7.031-2.483-36.864-10.931-58.368l-3.354-8.669 3.219 1.024c1.741 0.682 12.269 6.621 23.264 13.38 30.176 18.432 40.563 22.118 60.141 21.027 16.365-0.956 23.334-5.257 34.867-21.709 6.17-8.67 12.070-14.883 22.797-24.030 23.066-19.525 24-21.164 25.075-44.101 1.139-23.213 0.672-24.576-12.403-28.397-11.066-3.277-18.106-10.24-19.91-20.006-0.941-5.254 1.139-5.459 6.701-0.544l4.026 3.552 1.875-3.552c2.413-4.781 7.507-4.781 11.731 0l3.155 3.411 3.219-3.411c5.094-5.459 11.866-4.23 13.741 2.733 0.339 1.229 1.344 0.819 3.354-1.504 3.686-4.371 13.139-6.278 14.214-2.733 0.403 1.229-0.403 4.442-1.677 7.104-5.498 11.194-7.238 16.589-7.373 22.662 0 8.467 1.811 12.563 8.986 19.526 8.71 8.397 11.392 19.11 4.826 19.11-4.026 0-8.179 4.986-10.726 12.973-5.363 16.044-4.358 34.134 3.616 64.172 8.051 30.72 8.986 36.181 9.056 56.661 0 16.589-0.205 19.456-3.021 28.536-1.677 5.461-5.158 13.79-7.642 18.296l-4.493 8.192 5.83 6.69c17.907 20.070 14.285 52.975-7.373 65.536-6.502 3.96-8.179 4.301-19.712 4.096-6.97 0-17.434-1.229-23.469-2.731-6.163-1.365-16.493-2.594-23.597-2.594-11.264 0-13.146 0.273-17.434 3.413-4.557 3.277-5.363 4.779-6.234 12.288-0.134 1.638-0.941 3.14-1.747 3.414-1.542 0.682-8.717-7.51-9.651-11.332-0.538-1.775-1.005-1.638-2.483 0.683-1.005 1.706-2.413 5.461-3.149 8.328-1.811 7.373 0.403 12.971 6.701 17.067l5.030 3.14-2.816 2.458c-6.035 5.052-16.294 1.638-19.981-6.826-1.069-2.253-2.214-4.233-2.547-4.233s-2.349 2.253-4.422 4.984c-7.782 10.24-5.101 25.532 5.363 30.242 5.498 2.458 10.394 0.547 11.398-4.437 1.542-7.646 6.432 2.389 5.562 11.469-0.672 6.008-0.672 6.28 2.483 6.28 4.288 0 13.408-7.645 16.294-13.653 3.347-6.827 3.014-17.749-0.672-25.805l-2.682-6.349 3.616 0.956c5.37 1.502 10.733 6.144 13.414 11.606 2.816 5.871 3.149 17.271 0.666 23.484-2.477 5.939-2.208 6.827 1.344 4.779 6.17-3.414 9.389-7.1 11.866-13.654 2.278-5.802 2.413-7.236 1.21-13.312-0.672-3.754-2.349-8.669-3.622-10.922-2.010-3.619-2.010-4.233-0.467-4.233 2.88 0 9.050 3.755 11.194 6.827 1.075 1.638 2.682 5.461 3.558 8.738l1.542 5.734 1.805-4.369c2.547-6.144 7.379-11.811 13.414-15.292 6.502-3.823 9.184-4.096 5.83-0.546-2.278 2.389-6.502 19.115-5.229 20.685 0.672 0.956 9.523-8.192 19.443-20.344 9.523-11.605 15.424-15.292 24.134-15.292 11.2 0 17.638 13.107 12.742 25.464-3.021 7.236-9.523 8.192-13.274 2.048-1.747-2.867-2.214-5.12-1.747-8.056 0.672-3.686 0.403-4.096-2.010-4.096-3.354 0-9.658 5.461-20.922 18.296-17.229 19.456-38.214 35.976-53.299 41.984-9.722 3.959-30.438 5.461-40.23 3.004-10.726-2.594-23.469-10.923-30.304-19.797-12.205-15.702-12.339-36.523-0.467-55.569l3.347-5.461-2.278-4.779c-3.354-7.1-3.085-16.589 0.672-23.552 1.677-3.072 3.354-5.598 3.757-5.598 0.397 0 0.8 2.048 0.934 4.438 0.339 6.144 2.278 10.24 5.632 11.81 2.95 1.502 4.896 0.819 18.643-6.554 14.413-7.851 38.080-8.328 63.29-1.365 12.403 3.277 26.957 3.072 33.389-0.547 11.738-6.69 14.483-24.029 5.837-37.205-3.757-5.598-7.379-7.919-19.443-12.424-9.254-3.414-11.398-3.686-32.384-3.414-17.907 0.273-24.339-0.205-31.648-2.253-7.91-2.253-12.742-2.458-36.070-1.706l-26.957 0.956 3.021-3.413c1.606-1.775 4.019-4.096 5.158-4.984 2.016-1.502 2.016-1.707-1.069-3.208-1.811-0.956-5.702-1.638-8.717-1.638h-5.568l-0.666-6.417c-0.403-3.55-0.403-7.509 0-9.080 0.666-2.253 0.467-2.525-1.344-1.706-1.075 0.682-4.288 1.706-7.104 2.525s-6.573 2.39-8.384 3.619c-3.085 2.048-3.354 2.048-4.557-0.683-0.941-2.458-10.33-11.878-11.738-11.878-0.198 0-0.467 1.843-0.666 4.096 0 2.184-1.344 7.987-2.95 12.834-1.478 4.779-3.085 10.104-3.488 11.742-0.672 2.458-0.87 2.594-1.677 0.683-0.467-1.161-1.21-4.438-1.613-7.305-0.333-2.73-1.741-7.509-3.078-10.24l-2.419-5.052-1.542 4.369c-1.606 4.642-4.352 9.557-5.363 9.557-0.333 0-0.934-1.57-1.338-3.413-0.672-3.755-7.174-14.336-8.717-14.336-0.672 0-1.139 3.004-1.139 6.621 0 3.686-0.467 6.622-1.139 6.622-0.538 0-1.075-0.888-1.075-2.048 0-2.731-5.562-11.128-7.373-11.128-0.87 0-2.15-0.956-2.95-2.184-2.010-3.14-3.686-2.731-2.886 0.683 0.474 1.706 0.205 5.461-0.531 8.533l-1.811 7.168c-0.269 1.092-2.214 0.819-6.438-1.024-6.842-2.936-9.12-2.458-5.632 1.365 1.338 1.366 3.354 6.008 4.358 10.377 1.075 4.369 2.682 8.192 3.622 8.669 1.203 0.41 1.139-0.205-0.339-2.867-1.005-1.911-1.875-4.506-1.875-5.734s-0.87-4.096-1.811-6.485c-0.941-2.458-1.542-4.574-1.338-4.779 0.262-0.341 2.816 0.956 5.76 2.867l5.37 3.414v-3.072c0-1.707 0.666-6.144 1.338-9.967l1.478-6.826 3.616 2.253c3.686 2.321 7.245 10.581 7.245 16.93 0 3.277 1.338 2.731 1.875-0.683l1.875-8.192 1.613-6.417 2.477 4.096c1.344 2.253 3.155 6.621 3.891 9.762 1.344 5.325 3.219 7.646 3.219 3.755 0-2.867 5.766-12.971 6.835-12.152 0.538 0.41 1.613 4.232 2.349 8.465 1.613 8.874 4.16 14.882 5.837 13.653 0.666-0.546 0.8-1.365 0.467-2.048-0.269-0.683 1.005-6.485 2.95-12.834 2.010-6.349 4.019-12.766 4.358-14.2 0.672-2.389 1.338-2.048 5.498 2.936 2.682 3.072 4.96 6.485 5.229 7.645 0.403 1.638 1.005 1.571 3.354-0.41 3.354-2.867 14.752-7.509 15.622-6.28 0.333 0.41 0.672 4.437 0.672 8.875l0.198 8.192 3.354-0.888c1.811-0.546 5.562-0.478 8.378 0l5.094 1.024-4.486 4.232c-2.483 2.321-5.030 5.325-5.632 6.691-0.672 1.365-2.95 2.73-5.37 2.935-6.906 0.819-19.040 10.035-19.040 14.336 0 0.888 1.677-0.477 3.757-3.072 4.557-5.597 10.861-9.148 16.358-9.148h4.16l-2.547 4.506c-1.478 2.731-2.816 7.646-3.155 11.81-0.467 6.486-1.005 7.51-6.035 12.288-3.014 2.867-6.835 7.168-8.378 9.558l-2.816 4.301-1.478-5.12c-0.8-2.867-1.811-5.12-2.144-5.12-0.403 0-2.010 1.638-3.354 3.618-1.542 2.048-3.085 3.686-3.354 3.686-0.467 0-1.741-2.731-3.014-6.144l-2.214-5.939-1.741 3.413c-1.005 2.048-3.219 5.325-5.030 7.51-1.811 2.321-2.816 4.096-2.144 4.096s2.95-2.321 5.030-5.12l3.821-5.188 1.542 3.823c0.87 2.185 1.203 5.667 0.8 8.465-0.666 4.096-0.531 4.232 0.672 1.707 0.672-1.638 2.886-4.779 4.896-6.827l3.622-4.096 2.477 6.144c2.483 6.144 2.547 6.144 3.622 2.594 1.542-4.915 12.403-17.066 21.658-24.029 1.338-1.092 0.806 2.73-1.811 11.264-0.672 2.253-1.344 6.349-1.344 9.079 0 4.096-0.8 5.939-4.691 9.899-5.498 5.734-7.238 9.762-8.314 18.978-0.403 3.755-1.338 7.919-2.144 9.216-1.139 2.048-1.344 0.888-1.005-6.007 0.134-4.779-0.339-10.513-1.075-12.971l-1.338-4.369-1.075 3.686c-0.672 2.048-3.149 5.462-5.702 7.851-2.682 2.253-4.352 4.506-4.019 4.984 0.333 0.41 3.014-1.638 5.83-4.643 4.358-4.573 5.363-5.052 5.901-3.072 0.672 2.39 0 12.698-1.338 19.798-0.672 3.686-0.672 3.686 2.682-0.683 2.413-3.413 3.686-7.236 4.691-14.063 1.344-8.67 2.010-10.24 7.91-17.067 3.558-4.301 6.707-7.509 6.842-7.236 0.269 0.273 0.672 11.196 1.005 24.235 0.672 24.917 0 30.856-4.493 38.571l-2.278 3.959 3.552 5.257c4.691 6.826 6.842 12.288 7.776 19.797l0.806 6.144-4.019-5.256c-3.354-4.233-4.896-5.188-8.717-5.188-3.827 0-5.363 0.819-7.846 4.574-3.085 4.437-8.582 8.669-13.811 10.786-2.010 0.683-2.682 0.41-2.682-1.365 0-1.366-1.005-5.052-2.349-8.329l-2.349-6.007-4.96 6.69c-3.085 4.096-6.701 7.236-9.382 8.192-6.912 2.458-7.245 2.253-7.245-4.779 0-10.445-3.354-12.424-9.389-5.461-4.486 5.461-8.314 6.554-16.96 5.256l-6.707-1.024 1.344-4.096c0.941-3.413 0.672-4.778-1.478-8.669-3.482-6.281-8.045-9.011-15.014-9.011-3.219 0-7.245-0.888-8.986-2.048-1.677-1.024-5.901-2.321-9.389-2.731-3.488-0.478-7.174-1.365-8.243-1.843-1.613-0.819-1.811-0.136-1.344 4.915 0.87 7.782-3.085 13.448-9.389 13.448-8.045 0-11.731-9.762-8.576-22.664 0.589-2.181 1.184-5.544 1.594-7.848l0.147-0.822c0.467-2.389 4.019-8.738 8.582-14.813 4.288-5.871 8.314-11.947 8.986-13.517 0.666-1.571 2.88-4.096 4.89-5.598l3.693-2.731-0.474 5.257c-0.538 5.871 0.403 6.826 2.682 2.73 0.877-1.57 2.95-3.959 4.698-5.461 2.682-2.184 3.149-2.253 3.149-0.273 0 1.366 0.538 4.096 1.21 6.417l1.338 4.096 2.010-5.598c1.21-3.072 5.101-10.103 8.582-15.701 6.842-10.581 10.995-22.528 8.851-25.259-0.87-1.16-3.219-1.024-8.045 0.273-3.821 0.956-8.512 1.502-10.458 1.16-4.026-0.682-4.224 0-1.811 4.096 2.547 4.301 2.144 4.984-2.886 4.984-5.83 0-20.243 3.823-25.811 6.827-5.363 2.73-6.701 2.048-8.243-4.779l-2.886-12.629-1.542-6.827 5.837 0.683c3.213 0.477 7.373 1.365 9.184 2.184 1.875 0.683 3.552 1.092 3.75 0.888 0.205-0.273-0.666-3.004-1.805-6.008l-2.285-5.461 3.693 0.956c2.010 0.546 5.024 1.912 6.701 3.004 2.95 1.912 3.155 1.775 5.498-3.208 2.816-6.144 5.094-5.939 5.568 0.683 0.538 6.69 2.214 5.666 5.363-3.277 2.88-8.602 6.035-11.606 6.573-6.554 0.198 1.638 1.741 4.437 3.552 6.144 3.552 3.413 6.234 2.321 7.712-3.004 1.67-5.461-1.882-11.196-12.070-19.661-20.787-16.93-32.723-40.141-36.205-69.632-3.085-26.624 6.566-54.204 25.946-74.001 9.254-9.558 24-19.456 23.066-15.702-3.891 16.248-3.757 47.104 0.269 52.361 0.666 0.819 0.403-2.39-0.474-7.1-3.213-17.613-1.805-31.607 6.509-64.442 7.373-29.766 6.432-42.464-4.16-50.79-3.354-2.733-5.632-3.142-14.752-3.008-9.92 0.141-10.995-0.134-14.214-3.546-3.085-3.418-7.040-14.336-7.040-19.392 0-2.726 2.214-2.387 6.707 1.094l-1.075 0.134zM765.35 289.894c1.075 1.843 1.875 4.774 1.875 6.483 0 2.592 0.877 3.277 5.165 4.096l5.165 0.954-3.354 3.757c-4.16 4.371-4.563 7.782-0.941 7.782 3.552 0 9.658 5.050 10.592 8.876 0.474 1.638 0.205 3.96-0.531 5.188-2.016 3.072-5.837 2.594-6.509-0.819-0.8-3.686-2.010-3.755-4.89 0-4.294 5.461-4.429 16.93-0.205 23.62 1.882 3.14 1.882 3.414-0.672 6.554-2.682 3.55-4.691 10.445-3.347 12.083 0.397 0.478 2.547 0 4.691-0.956 3.219-1.365 4.493-1.502 5.766 0 4.019 4.096-0.333 9.557-6.707 8.328-2.477-0.477-3.482 0-3.885 1.775-0.269 1.365-2.483 3.208-5.030 4.096-4.422 1.501-4.493 1.365-4.493-2.731 0-4.574-2.010-5.461-5.562-2.526-3.021 2.39-5.901 0.547-5.901-3.754 0-3.96 3.014-5.939 8.314-5.462 4.019 0.342 4.224-3.823 0.333-9.693l-2.816-4.301 2.214-4.301c3.354-6.349 3.014-16.931-0.672-22.187l-2.682-4.096-1.875 3.277c-2.547 4.574-6.035 4.232-7.040-0.683-0.672-3.208 0-4.642 2.88-8.058 2.010-2.253 4.896-4.096 6.438-4.096 3.885 0 3.75-4.096-0.269-8.326l-3.149-3.277 4.96-1.024c2.682-0.544 4.826-1.638 4.826-2.387 0-2.733 3.354-11.469 4.493-11.469 0.672 0 2.010 1.363 2.88 3.206l-0.064 0.070zM782.31 438.032c11.136 6.621 12.070 23.484 1.613 27.989-4.358 1.775-7.11 0.683-8.717-3.208-1.344-3.072-0.467-8.602 1.338-8.602 0.538 0 1.011-0.956 1.011-2.185 0-5.871-16.966-8.533-23.872-3.754-2.413 1.706-3.354 6.007-1.338 6.007 1.338 0 2.477 4.506 1.741 7.646-1.075 4.232-4.294 5.734-8.851 4.096-10.394-3.686-10.054-20.207 0.467-27.307 8.717-5.666 27.763-6.007 36.742-0.682h-0.134zM775.405 451.002c0.672 0.683 0.403 2.048-0.666 3.209-2.349 2.525-2.214 6.28 0.333 10.581 2.010 3.208 2.214 7.987 2.88 56.388 1.146 83.558 5.702 146.295 11.738 161.314 2.413 6.008 2.010 6.144-4.16 0.341-8.045-7.373-14.080-17.066-19.443-30.72-10.189-25.941-13.741-60.893-13.741-135.441 0-42.326 0.269-47.787 2.010-51.883 1.741-3.686 1.811-5.12 0.672-9.148-0.806-2.595-1.139-5.12-0.806-5.462 2.278-3.004 18.771-2.253 21.254 0.888l-0.070-0.068zM737.523 755.2h-67.046v-68.266h67.046v68.266zM1206.861 755.2h-67.053v-68.266h67.053v68.266zM737.523 209.069h-67.046v-68.269h67.046v68.269zM1206.861 209.069h-67.053v-68.269h67.053v68.269z" />
<glyph unicode="&#xeac5;" horiz-adv-x="1408" d="M0 960h1408v-1024h-1408v1024z" />
<glyph unicode="&#xeac6;" horiz-adv-x="1408" d="M448 960h960v-68.267h-960v68.267zM448 823.467h960v-68.267h-960v68.267zM448 686.933h960v-68.266h-960v68.266zM448 550.4h960v-68.267h-960v68.267zM0 413.867h1408v-68.267h-1408v68.267zM0 277.331h1408v-68.262h-1408v68.262zM0 140.8h1408v-68.269h-1408v68.269z" />
<glyph unicode="&#xeac7;" horiz-adv-x="1408" d="M1408 4.269h-1408v-68.269h1408v68.269z" />
<glyph unicode="&#xeac8;" horiz-adv-x="1408" d="M0 960h448v-480h-448v480z" />
<glyph unicode="&#xeac9;" horiz-adv-x="1408" d="M224 630.69l-98.885-54.69 18.885 115.862-80 81.862 110.557 16.897 49.443 105.379 49.443-105.31 110.557-16.897-80-82.069 18.885-115.724z" />
<glyph unicode="&#xeaca;" horiz-adv-x="1408" d="M0 960h1408v-1024h-1408v1024z" />
<glyph unicode="&#xeacb;" horiz-adv-x="1408" d="M677.184 564.053l-73.754-150.186h201.146l-73.754 150.186c4.224 5.734 6.701 12.766 6.701 20.48 0 18.842-15.014 34.134-33.523 34.134-18.502 0-33.523-15.292-33.523-34.134 0-7.714 2.483-14.746 6.707-20.48zM871.622 345.6c0-37.683-75.098-68.269-167.622-68.269s-167.617 30.586-167.617 68.269v68.267h335.24v-68.267z" />
<glyph unicode="&#xeacc;" horiz-adv-x="1408" d="M0 192h1408v-256h-1408v256z" />
<glyph unicode="&#xeacd;" horiz-adv-x="1408" d="M0 960h1408v-256h-1408v256z" />
<glyph unicode="&#xeace;" horiz-adv-x="1408" d="M0 960h1408v-1024h-1408v1024z" />
<glyph unicode="&#xeacf;" horiz-adv-x="1408" d="M0 256h1408v-320h-1408v320z" />
<glyph unicode="&#xead0;" horiz-adv-x="1408" d="M0 960h1408v-320h-1408v320z" />
<glyph unicode="&#xead1;" horiz-adv-x="1408" d="M0 960h1408v-1024h-1408v1024z" />
<glyph unicode="&#xead2;" horiz-adv-x="1408" d="M0 256h1408v-320h-1408v320z" />
<glyph unicode="&#xead3;" horiz-adv-x="1408" d="M0 960h1408v-320h-1408v320z" />
<glyph unicode="&#xead4;" horiz-adv-x="1408" d="M0 960h1408v-1024h-1408v1024z" />
<glyph unicode="&#xead5;" horiz-adv-x="1408" d="M0 345.6h1408v-409.6h-1408v409.6zM0 960h1408v-409.6h-1408v409.6z" />
<glyph unicode="&#xead6;" horiz-adv-x="1408" d="M0 960h1408v-1024h-1408v1024z" />
<glyph unicode="&#xead7;" horiz-adv-x="1408" d="M0 209.069h1408v-273.069h-1408v273.069z" />
<glyph unicode="&#xead8;" horiz-adv-x="1408" d="M0 960h1408v-273.067h-1408v273.067z" />
<glyph unicode="&#xead9;" horiz-adv-x="1408" d="M804.57 482.133h67.053v-68.266h-67.053v68.266z" />
<glyph unicode="&#xeada;" horiz-adv-x="1408" d="M838.093 345.6c-30.573-41.44-79.245-68.269-134.093-68.269-92.526 0-167.619 76.461-167.619 170.669s75.093 170.667 167.619 170.667c54.848 0 103.52-26.829 134.093-68.267h-100.57c-55.514 0-100.571-45.875-100.571-102.4s45.057-102.4 100.571-102.4h100.57z" />
<glyph unicode="&#xeadb;" horiz-adv-x="1408" d="M128 960h1152c70.692 0 128-57.308 128-128v-768c0-70.692-57.308-128-128-128h-1152c-70.692 0-128 57.308-128 128v768c0 70.692 57.308 128 128 128z" />
<glyph unicode="&#xeadc;" horiz-adv-x="1408" d="M704 346.283l-98.56-52.568 18.773 111.619-79.652 79.189 110.159 16.248 49.28 101.581 49.28-101.513 110.157-16.384-79.782-79.053 18.771-111.686z" />
<glyph unicode="&#xeadd;" horiz-adv-x="1408" d="M0 960h1408v-1024h-1408v1024z" />
<glyph unicode="&#xeade;" horiz-adv-x="1408" d="M0 413.867h1408v-477.867h-1408v477.867z" />
<glyph unicode="&#xeadf;" horiz-adv-x="1408" d="M0 960h1408v-1024h-1408v1024z" />
<glyph unicode="&#xeae0;" horiz-adv-x="1408" d="M0 960h512v-1024h-512v1024z" />
<glyph unicode="&#xeae1;" horiz-adv-x="1408" d="M576 632h320v-360h-320v360zM576 272l160-144 160 144h-320zM704 704h64v-72h-64v72z" />
<glyph unicode="&#xeae2;" horiz-adv-x="1408" d="M640 576h192v-192h-192v192z" />
<glyph unicode="&#xeae3;" horiz-adv-x="1408" d="M640 384h192v-76.8h-192v76.8zM640 307.2l96-51.2 96 51.2h-192z" />
<glyph unicode="&#xeae4;" horiz-adv-x="1408" d="M736 512c17.664 0 32-20.544 32-48.48v-95.040c0-26.88-14.848-48.48-32-48.48-17.664 0-32 20.544-32 48.48v95.040c0 26.88 14.848 48.48 32 48.48z" />
<glyph unicode="&#xeae5;" horiz-adv-x="1408" d="M960 960h512v-1024h-512v1024z" />
<glyph unicode="&#xeae6;" horiz-adv-x="1408" d="M0 960h1408v-1024h-1408v1024z" />
<glyph unicode="&#xeae7;" horiz-adv-x="1408" d="M67.047 891.733h1273.907v-887.469h-1273.907v887.469z" />
</font>
</defs>
</svg>
